<?xml version="1.0" standalone="no"?>
<!DOCTYPE svg PUBLIC "-//W3C//DTD SVG 1.1//EN" "http://www.w3.org/Graphics/SVG/1.1/DTD/svg11.dtd" >
<svg xmlns="http://www.w3.org/2000/svg" xmlns:xlink="http://www.w3.org/1999/xlink" version="1.1">
<metadata>
Created by FontForge 20190801 at Tue May 22 13:34:20 2018
 By Jimmy Wärting
By PintassilgoPrints, 2018. All rights reserved. http://www.pintassilgoprints.com
</metadata>
<defs>
<font id="Mindset-Slim" horiz-adv-x="1112" >
  <font-face 
    font-family="Mindset"
    font-weight="400"
    font-stretch="normal"
    units-per-em="2048"
    panose-1="2 0 5 3 0 0 0 0 0 0"
    ascent="1638"
    descent="-410"
    x-height="1420"
    cap-height="1450"
    bbox="-124 -576 1798 2024"
    underline-thickness="0"
    underline-position="0"
    stemh="148"
    stemv="242"
    unicode-range="U+0020-FB02"
  />
<missing-glyph horiz-adv-x="2000" 
 />
    <glyph glyph-name=".notdef" horiz-adv-x="2000" 
 />
    <glyph glyph-name="glyph1" horiz-adv-x="0" 
 />
    <glyph glyph-name="glyph2" horiz-adv-x="682" 
 />
    <glyph glyph-name="space" unicode=" " horiz-adv-x="446" 
 />
    <glyph glyph-name="exclam" unicode="!" horiz-adv-x="368" 
d="M72 1402v8c0 40 11 47 46 50c16 1 57 2 124 2c31 0 49 -3 54 -8s9 -22 10 -50c4 -132 6 -261 6 -386c0 -47 0 -117 -1 -210s-1 -163 -1 -208c0 -77 -2 -158 -6 -242c-1 -49 6 -51 -34 -50c-31 0 -81 1 -150 4c-21 0 -32 15 -32 44c0 379 -5 727 -16 1046zM296 168
c0 -21 -1 -50 -3 -86s-3 -64 -3 -84c-1 -17 -3 -27 -5 -29s-12 -4 -29 -5c-59 -3 -100 -4 -124 -4c-40 0 -46 1 -46 44c0 16 0 39 -1 70s-1 50 -1 58v16c0 29 3 31 38 34c83 7 133 10 152 10s22 -3 22 -24z" />
    <glyph glyph-name="quotedbl" unicode="&#x22;" horiz-adv-x="556" 
d="M76 1436h130c13 0 20 -5 20 -14v-146c0 -89 -3 -173 -8 -252c-3 -21 -7 -26 -20 -26h-8c-15 -1 -49 -2 -104 -2c-19 0 -28 13 -28 40c0 44 0 109 -1 195s-1 148 -1 187c0 14 0 18 20 18zM314 1406c0 16 4 17 28 20c56 3 103 4 140 4c13 0 20 -5 20 -14v-128
c0 -100 -4 -187 -12 -262c-1 -17 -7 -26 -16 -26s-28 0 -56 1s-47 1 -58 1c-24 0 -23 2 -26 26c-13 236 -20 362 -20 378z" />
    <glyph glyph-name="numbersign" unicode="#" horiz-adv-x="1388" 
d="M844 886c-24 0 -60 0 -107 1s-92 1 -133 1c-21 -112 -37 -197 -48 -254l-12 -2c47 0 129 1 248 2c5 31 14 74 27 131s21 97 25 121zM422 12c-51 -5 -115 -8 -194 -8c-20 0 -30 5 -30 16v2c0 3 1 12 4 28c5 32 18 97 37 195s30 155 33 171h-158c-23 0 -36 2 -40 5
s-7 13 -8 29s-3 42 -5 77s-3 60 -3 75v4c0 21 9 26 44 26h212c3 15 10 53 23 115s22 109 29 141c-44 0 -97 0 -159 1s-98 1 -109 1c-45 0 -47 2 -50 34c-1 16 -3 41 -5 76s-3 59 -3 74v4c0 21 9 26 44 26h326c8 37 27 145 58 324c5 27 23 40 52 40c84 0 135 -1 154 -4
c13 -1 20 -7 20 -16c0 -8 -1 -15 -2 -20c-19 -109 -32 -229 -48 -322c35 0 76 0 124 1s89 1 122 1c8 43 14 78 19 105s10 60 17 97s13 75 20 114c5 25 23 38 52 38c49 0 97 -3 144 -10c12 -1 18 -7 18 -16v-2c0 -3 -2 -13 -2 -18l-44 -306h198c15 0 23 -12 24 -36
c0 -7 0 -28 1 -65s1 -60 1 -69v-12c0 -23 -3 -33 -13 -36c-9 -3 -9 -4 -26 -4h-21c-17 -1 -86 -2 -206 -2c-5 -28 -13 -70 -24 -125s-19 -97 -24 -125c48 0 107 0 176 1s113 1 130 1c13 0 21 -12 22 -36c0 -7 1 -29 2 -66s2 -61 2 -70v-10c0 -23 -3 -33 -13 -36
c-7 -4 -27 -4 -49 -4c-25 -1 -129 -2 -310 -2c-4 -24 -16 -87 -36 -190s-33 -171 -38 -206c-1 -11 -9 -17 -22 -18c-8 -1 -26 -2 -54 -2c-16 0 -40 0 -71 1s-51 1 -59 1c-19 0 -28 5 -28 16c0 4 1 14 4 30c5 33 18 100 37 199s30 156 33 169c-29 0 -67 0 -112 1
s-86 1 -122 1c-4 -25 -16 -88 -35 -188s-32 -166 -37 -198c-1 -11 -9 -17 -22 -18z" />
    <glyph glyph-name="dollar" unicode="$" horiz-adv-x="716" 
d="M296 1480v84v26c0 13 2 16 18 16c7 0 25 -1 55 -2s48 -2 53 -2c11 0 10 0 10 -16v-34v-44c0 -36 1 -54 4 -54c16 0 49 -8 98 -23s74 -32 74 -49c0 -12 -1 -22 -4 -30c-16 -53 -27 -93 -34 -120c-12 -37 -8 -52 -32 -52c-8 0 -24 2 -47 7s-40 7 -51 7
c-72 0 -108 -46 -108 -138c0 -112 123 -209 217 -315c65 -73 119 -184 119 -309c0 -96 -11 -177 -40 -268s-95 -154 -186 -162c-1 0 -2 -13 -2 -38v-82v-20c0 -19 -1 -20 -20 -20h-8h-90c-9 0 -14 5 -14 14v16c0 34 -2 94 -2 118v10c-57 0 -134 59 -230 176
c-19 24 -28 47 -28 68c0 13 6 27 18 42c24 24 43 41 56 52c28 24 44 36 48 36c8 0 23 -9 44 -26c19 -13 50 -43 67 -56s42 -28 61 -28c55 0 82 45 82 136c0 21 -3 41 -8 58c-15 57 -43 113 -84 166s-82 97 -121 132s-75 81 -107 138s-48 120 -48 188c0 89 20 166 60 231
s99 108 178 129c1 0 2 13 2 38z" />
    <glyph glyph-name="percent" unicode="%" horiz-adv-x="1262" 
d="M1214 282c0 -64 -24 -129 -73 -195s-114 -99 -197 -99c-64 0 -119 30 -166 91s-70 128 -70 203c0 83 23 151 69 204s102 80 169 80c179 0 268 -95 268 -284zM1064 292c0 37 -11 64 -34 81s-45 25 -68 25c-25 0 -48 -10 -68 -31s-30 -45 -30 -73c0 -75 43 -110 96 -110
c24 0 47 12 70 36s34 48 34 72zM484 -4c-72 -5 -132 -8 -180 -8c-27 0 -40 5 -40 16c0 8 2 18 6 30c56 193 134 436 234 727s171 508 214 651c8 27 34 40 78 40c55 0 95 -1 122 -4c19 -1 28 -7 28 -16c0 -3 -1 -9 -4 -20c-57 -208 -131 -452 -221 -733s-158 -502 -205 -665
c-3 -11 -13 -17 -32 -18zM542 1180c0 -64 -25 -129 -74 -196s-115 -100 -198 -100c-64 0 -117 30 -159 91s-63 129 -63 205c0 84 21 152 63 205s96 79 163 79c179 0 268 -95 268 -284zM392 1190c0 37 -11 64 -34 81s-45 25 -68 25c-25 0 -48 -10 -69 -31s-31 -45 -31 -73
c0 -75 45 -112 96 -112c24 0 48 12 71 37s35 49 35 73z" />
    <glyph glyph-name="ampersand" unicode="&#x26;" horiz-adv-x="1062" 
d="M1026 30c0 -12 -39 -18 -116 -18h-62c-39 0 -47 1 -56 10c-3 3 -13 25 -18 36c-29 53 -47 80 -52 80c-2 0 -43 -56 -121 -104c-52 -32 -147 -56 -251 -56c-95 0 -169 36 -223 108s-81 165 -81 280c0 169 53 307 158 412c-79 123 -118 223 -118 302c0 120 36 217 109 292
s158 112 255 112c69 0 141 -33 215 -98s111 -142 111 -230c0 -123 -29 -229 -64 -289c-17 -30 -35 -55 -52 -76c-35 -41 -64 -60 -64 -65c0 -13 45 -78 136 -194c24 -6 53 53 68 96c5 13 12 30 19 51s12 34 13 39c9 25 17 39 24 42c4 1 9 2 14 2c18 0 78 -6 98 -6
c31 0 46 -9 46 -28c0 -57 -22 -132 -67 -224s-76 -147 -95 -166v-2c0 -13 42 -84 98 -173c28 -45 46 -74 54 -87c15 -27 22 -42 22 -46zM570 1126c0 48 -13 81 -38 98s-54 26 -86 26c-33 0 -62 -15 -87 -45s-37 -60 -37 -91c0 -36 15 -80 44 -131s54 -77 74 -77
c5 0 19 12 40 37s42 55 61 91s29 67 29 92zM414 256c21 0 46 5 74 16s51 21 68 32l24 16c0 15 -17 44 -51 88s-68 85 -101 122l-52 56c-60 -73 -90 -135 -90 -184c0 -83 36 -127 69 -138c17 -5 36 -8 59 -8z" />
    <glyph glyph-name="quotesingle" unicode="'" horiz-adv-x="308" 
d="M56 1402c0 19 3 23 30 26c92 4 141 6 148 6c16 0 18 -2 18 -18v-16c-1 -29 -4 -90 -8 -183s-7 -167 -8 -223c0 -23 -3 -35 -10 -38c-3 -1 -7 -2 -14 -2c-31 0 -69 1 -114 4c-15 0 -22 6 -22 18c-1 19 -5 81 -11 186s-9 185 -9 240z" />
    <glyph glyph-name="parenleft" unicode="(" horiz-adv-x="642" 
d="M564 1496c21 0 32 -28 32 -84v-24c0 -11 -8 -17 -24 -20l-6 -2c-95 -21 -164 -90 -209 -206s-67 -261 -67 -434c0 -172 21 -323 62 -452s106 -205 194 -228c5 -3 27 -6 32 -7s14 -12 14 -25v-68c0 -16 -5 -24 -14 -24c-67 0 -141 23 -224 68c-120 67 -201 156 -243 267
s-63 279 -63 503c0 193 37 352 111 477s184 205 329 241c29 5 65 18 76 18z" />
    <glyph glyph-name="parenright" unicode=")" horiz-adv-x="644" 
d="M76 1496c1 0 27 -6 78 -18c145 -36 255 -116 329 -241s111 -284 111 -477c0 -224 -21 -392 -63 -503s-123 -200 -243 -267c-83 -45 -158 -68 -226 -68c-9 0 -14 8 -14 24c0 19 2 31 2 68c0 13 9 24 14 25s27 4 32 7c88 23 153 99 194 228s62 280 62 452
c0 173 -22 318 -67 434s-114 185 -209 206c-19 9 -29 17 -30 22v24c0 32 1 42 4 59s13 25 26 25z" />
    <glyph glyph-name="asterisk" unicode="*" horiz-adv-x="710" 
d="M422 1406c0 -16 -1 -48 -2 -96s-2 -77 -2 -88c87 61 135 96 146 104c8 7 15 10 22 10c3 0 9 -5 20 -16c16 -16 39 -47 42 -50c7 -9 10 -15 10 -16l-10 -14c-13 -13 -36 -35 -69 -64s-56 -51 -69 -64c13 -23 33 -56 59 -101s41 -70 45 -77c7 -11 10 -19 10 -24
c0 -7 -11 -10 -32 -10c-8 0 -25 0 -51 -1s-44 -1 -55 -1c-17 0 -33 11 -48 32c-9 13 -22 36 -38 68s-27 53 -34 62c-29 -39 -58 -85 -86 -138c-13 -27 -21 -34 -56 -34c-11 0 -36 -2 -44 -2h-14c-43 0 -64 4 -64 12l14 28c29 57 61 115 94 174c-20 16 -68 49 -144 100
c-11 7 -16 13 -16 18c0 7 9 26 26 59s28 49 32 49c5 0 12 -3 20 -10l146 -90v104c0 15 -2 69 -2 82c0 9 7 14 20 14h110c16 0 20 -1 20 -20z" />
    <glyph glyph-name="plus" unicode="+" horiz-adv-x="710" 
d="M160 736h80v154c0 42 2 46 34 46h18c15 0 37 0 67 1s52 1 65 1c27 0 30 -3 30 -40v-64c0 -8 0 -23 1 -44s1 -38 1 -50c91 3 148 4 172 4c19 0 28 -13 28 -38c0 -7 0 -28 -1 -65s-1 -60 -1 -69c0 -30 -2 -45 -13 -47c-9 -1 -7 -3 -23 -3h-18c-13 0 -49 -2 -68 -2h-72
c1 -40 2 -91 2 -154c0 -19 -13 -28 -38 -28c-7 0 -28 0 -65 1s-60 1 -69 1c-30 0 -45 2 -47 13c-1 9 -3 7 -3 23v18c0 13 -2 49 -2 68v60h-134c-43 0 -46 2 -46 34v8v10c0 15 0 37 -1 67s-1 52 -1 65c0 27 3 30 40 30h64z" />
    <glyph glyph-name="comma" unicode="," horiz-adv-x="400" 
d="M102 240c27 0 65 -4 102 -4c16 0 49 2 60 2c48 0 73 -9 76 -28c1 -8 2 -23 2 -46c0 -16 -1 -40 -2 -71s-2 -50 -2 -57c0 -87 -9 -149 -26 -186s-55 -69 -114 -94c-19 -9 -40 -14 -64 -14c-29 0 -49 5 -60 16c-7 5 -10 13 -10 24c0 13 7 25 20 34c13 8 44 25 51 29
s28 18 32 29c8 18 17 44 15 90c0 13 -17 18 -52 19c-17 1 -30 2 -38 3c-16 9 -25 16 -26 20c0 15 0 46 1 93s1 77 1 89c0 45 5 52 34 52z" />
    <glyph glyph-name="hyphen" unicode="-" horiz-adv-x="598" 
d="M96 848h64c40 0 99 1 178 4s136 4 172 4c17 0 26 -13 26 -38c0 -7 0 -28 -1 -65s-1 -60 -1 -69c0 -30 -2 -45 -13 -47c-9 -1 -7 -3 -23 -3h-18c-13 0 -47 -2 -66 -2c-33 0 -84 0 -153 1s-121 1 -157 1c-43 0 -46 2 -46 34v18c0 15 0 37 -1 67s-1 52 -1 65
c0 27 3 30 40 30z" />
    <glyph glyph-name="period" unicode="." horiz-adv-x="380" 
d="M116 260c56 4 117 6 182 6c16 0 18 -3 18 -24c3 -91 4 -161 4 -212c0 -24 -3 -25 -24 -28c-65 -5 -134 -8 -206 -8h-2c-19 0 -22 4 -22 20v10c-3 56 -4 112 -4 168v24c0 25 2 39 15 41c9 1 7 3 23 3h16z" />
    <glyph glyph-name="slash" unicode="/" horiz-adv-x="776" 
d="M266 4c-72 -5 -132 -8 -180 -8c-27 0 -40 5 -40 16c0 8 2 18 6 30c56 193 134 436 234 727s171 508 214 651c8 25 34 38 78 38h64c23 0 42 -1 58 -2c19 -1 28 -7 28 -16c0 -3 -1 -9 -4 -20c-57 -208 -131 -452 -221 -733s-158 -502 -205 -665c-3 -11 -13 -17 -32 -18z
" />
    <glyph glyph-name="zero" unicode="0" horiz-adv-x="1156" 
d="M38 652c0 232 47 422 142 570s227 222 396 222c167 0 299 -68 397 -205s147 -299 147 -487c0 -219 -52 -401 -157 -547s-249 -219 -433 -219c-143 0 -260 66 -353 197s-139 288 -139 469zM284 700c0 -111 25 -209 76 -296s113 -130 186 -130c60 0 114 26 163 77
s85 112 110 183s37 141 37 210c0 107 -27 205 -80 294s-117 134 -190 134c-83 0 -154 -51 -213 -152s-89 -208 -89 -320z" />
    <glyph glyph-name="one" unicode="1" horiz-adv-x="642" 
d="M338 62c0 3 0 82 1 239s1 325 1 506v363c-7 -8 -17 -26 -30 -55s-28 -53 -44 -73s-33 -30 -52 -30c-9 0 -17 1 -24 2c-20 0 -80 3 -115 9c-28 4 -45 12 -45 23c0 4 10 20 30 48c23 33 82 133 178 298c17 29 28 45 32 46c3 1 6 2 10 2c19 0 96 -2 232 -6c54 0 64 1 64 -50
c0 -124 2 -342 7 -654s7 -543 7 -692c0 -35 -9 -38 -54 -38h-146c-43 0 -52 9 -52 62z" />
    <glyph glyph-name="two" unicode="2" horiz-adv-x="812" 
d="M122 10c-43 0 -64 11 -64 32c0 45 4 99 12 162c5 43 12 72 19 87s21 34 41 55c15 16 42 44 82 83s72 71 95 95s52 57 86 100s60 82 79 117s35 77 50 126s22 98 22 147c0 123 -49 208 -126 208c-36 0 -63 -19 -82 -56s-28 -77 -28 -118v-32c0 -19 1 -27 -10 -32
s-16 -5 -48 -8c-4 0 -25 -2 -63 -6s-67 -6 -87 -6c-22 0 -35 3 -38 17c-3 12 -3 10 -6 31c-1 11 -2 18 -2 22c-4 36 -6 74 -6 114c0 91 38 166 115 225s163 89 259 89c101 0 184 -35 247 -106s95 -165 95 -282c0 -159 -29 -295 -86 -409s-143 -234 -258 -359
c2 0 46 -2 50 -2c15 0 38 1 69 2s52 2 63 2h44c36 0 45 -9 54 -18c3 -3 4 -17 5 -21s3 -25 3 -33c12 -120 18 -184 18 -192c0 -16 -4 -25 -11 -28s-26 -5 -55 -6c-31 -1 -76 -2 -136 -2c-43 0 -109 0 -200 1s-158 1 -202 1z" />
    <glyph glyph-name="three" unicode="3" horiz-adv-x="804" 
d="M332 1202c-29 0 -71 -3 -124 -10s-96 -10 -128 -10c-27 0 -30 7 -30 58v150c0 27 6 41 21 43c8 1 23 5 41 5c113 13 203 20 270 20c225 0 338 -113 338 -340c0 -65 -9 -127 -26 -184s-34 -99 -51 -125s-30 -42 -39 -49c21 -11 74 -62 123 -159c25 -49 37 -96 37 -143
c0 -184 -53 -303 -169 -370c-58 -33 -122 -57 -192 -71s-158 -24 -265 -29c-8 0 -29 -2 -34 -2c-37 0 -45 9 -50 52c-3 13 -4 43 -4 90v46c1 35 5 54 10 58s19 7 40 8c13 3 45 4 58 4c16 3 41 5 76 8s61 5 79 8s40 8 66 15c73 19 106 63 111 155c0 133 -80 200 -240 200
c-27 0 -36 0 -40 12c-3 8 -2 4 -3 19c-1 7 -1 12 -1 15c0 4 -2 24 -7 59s-7 61 -7 77c0 21 9 25 44 28c72 5 142 22 205 86c31 32 47 72 47 120c0 104 -52 156 -156 156z" />
    <glyph glyph-name="four" unicode="4" horiz-adv-x="862" 
d="M696 38c0 -32 -10 -38 -58 -38c-16 0 -40 0 -72 1s-56 1 -72 1c-21 0 -32 10 -32 30v488c0 11 -3 16 -8 16c-31 0 -84 -3 -161 -10s-137 -10 -181 -10c-43 0 -64 6 -64 18c0 39 0 92 1 161s1 120 1 153c0 9 6 26 18 50c113 229 201 393 262 490c13 20 31 30 52 30
c15 0 51 2 109 5s105 5 141 5c37 0 50 -30 50 -134c0 -57 0 -146 1 -266s1 -208 1 -264c0 -12 6 -18 18 -18c40 0 69 4 90 4c13 0 11 -1 14 -38c5 -67 8 -115 8 -146c0 -11 -3 -17 -15 -21s-15 -4 -39 -9c-28 -4 -43 -6 -44 -6c-16 0 -24 -17 -24 -52c0 -48 1 -121 2 -220
s2 -172 2 -220zM466 812c1 13 2 31 2 54c0 5 0 24 1 57s1 60 1 83c0 121 -8 182 -24 182s-37 -25 -62 -74s-51 -106 -77 -171s-42 -102 -47 -113c-9 -17 -14 -34 -14 -50c0 -24 11 -36 32 -36c5 0 20 0 45 1s39 1 43 1h48c25 3 40 6 44 10s7 23 8 56z" />
    <glyph glyph-name="five" unicode="5" horiz-adv-x="764" 
d="M396 1170c-60 0 -90 -10 -90 -30v-120v-146v-4c0 -32 5 -36 42 -36c109 0 199 -31 269 -94s105 -156 105 -280c0 -143 -34 -257 -101 -342s-159 -128 -275 -128c-57 0 -137 12 -240 36c-31 7 -47 14 -50 22c-3 5 -4 20 -4 44c0 13 0 34 -1 61s-1 48 -1 63
c0 35 5 52 16 52c8 0 31 -10 52 -14c72 -19 131 -28 176 -28c37 0 74 20 110 60s54 92 54 156c-4 96 -38 138 -98 153c-43 12 -66 13 -114 13c-16 0 -37 -1 -62 -2s-42 -2 -50 -2h-8c-25 0 -42 5 -50 15s-13 37 -14 81c-1 45 -2 106 -2 182c0 67 1 150 3 250s3 176 3 228
c0 67 8 78 48 78c48 0 136 -1 263 -2s216 -2 267 -2c48 0 58 -4 58 -36c0 -25 -2 -63 -7 -112s-7 -77 -7 -84c-1 -23 -10 -34 -26 -34c-21 0 -64 0 -128 1s-110 1 -138 1z" />
    <glyph glyph-name="six" unicode="6" horiz-adv-x="892" 
d="M560 1146c-197 -61 -288 -223 -288 -522c1 0 27 10 77 31s93 36 130 46s72 15 107 15c81 0 145 -32 190 -95s68 -142 68 -235c0 -113 -33 -209 -98 -288s-143 -118 -232 -118c-309 0 -464 206 -464 590c0 263 63 475 188 638c103 132 217 205 342 218c9 1 20 2 32 2
c27 0 34 -11 34 -54c0 -19 1 -57 4 -116v-34c4 -42 -9 -53 -24 -60c-8 -3 -45 -10 -66 -18zM318 340c0 -41 17 -74 51 -97s75 -35 123 -35c93 0 140 57 140 142c0 44 -12 75 -36 93s-51 27 -82 27c-33 0 -74 -16 -123 -47s-73 -59 -73 -83z" />
    <glyph glyph-name="seven" unicode="7" horiz-adv-x="638" 
d="M254 0c-137 0 -206 15 -206 46c0 12 3 25 8 38l30 108c21 83 60 234 117 453s99 381 127 485c0 0 1 7 4 20c0 7 -13 11 -38 12c-88 5 -159 8 -212 8c-17 0 -26 9 -26 26c0 21 -1 54 -3 98s-3 77 -3 100c0 35 7 40 44 40c52 0 127 1 225 2s172 2 221 2c45 0 48 -9 48 -62
c0 -17 -1 -50 -3 -97s-3 -85 -3 -113c0 -23 -10 -70 -30 -142c-33 -115 -76 -282 -127 -502s-88 -372 -111 -456c-3 -11 -7 -36 -10 -43c-1 -3 -4 -7 -8 -12c-8 -9 -20 -11 -44 -11z" />
    <glyph glyph-name="eight" unicode="8" horiz-adv-x="818" 
d="M788 394c0 -269 -135 -420 -362 -420c-115 0 -203 33 -265 100s-93 145 -93 234c0 120 24 216 56 263c16 23 32 42 48 56c32 28 56 38 56 41c0 7 -67 65 -118 148c-35 56 -64 147 -64 240c0 101 36 193 109 274s158 122 255 122c99 0 180 -34 245 -103s97 -154 97 -257
c0 -72 -11 -141 -32 -207s-43 -114 -64 -145l-30 -44c0 -8 40 -41 81 -78s81 -123 81 -224zM552 1108c0 35 -14 66 -42 95s-56 43 -84 43c-36 0 -68 -15 -96 -44s-42 -67 -42 -114c0 -122 97 -203 136 -228l16 -10c8 8 18 19 31 34s29 45 50 90s31 90 31 134zM468 568
l-26 32l-8 -8c-29 -29 -122 -134 -122 -248c0 -104 42 -156 126 -156c35 0 61 19 80 56s28 79 28 124c0 35 -9 71 -26 110s-35 69 -52 90z" />
    <glyph glyph-name="nine" unicode="9" horiz-adv-x="838" 
d="M404 870c104 0 132 55 132 164c0 52 -14 92 -41 121s-56 43 -87 43c-35 0 -70 -16 -105 -49s-53 -70 -53 -111c0 -43 17 -81 51 -116s68 -52 103 -52zM286 286c128 51 202 123 222 218l24 150c-12 -12 -38 -24 -77 -37s-66 -19 -81 -19c-101 0 -184 48 -248 143
s-96 198 -96 307c0 105 39 200 117 285s164 127 257 127c128 0 224 -44 288 -133s96 -208 96 -357c0 -75 -1 -136 -2 -185s-5 -107 -12 -174s-16 -124 -28 -169s-30 -94 -53 -145c-47 -103 -109 -166 -206 -225c-49 -29 -104 -51 -167 -66c-11 -3 -36 -10 -44 -10
c-13 0 -22 17 -26 50c-8 75 -12 136 -12 184c0 30 6 38 15 44c4 3 25 9 33 12z" />
    <glyph glyph-name="colon" unicode=":" horiz-adv-x="364" 
d="M262 870h-78c-15 0 -69 2 -84 2c-32 0 -38 5 -38 24c0 41 2 106 6 194c3 32 5 36 26 36h176c35 0 38 -3 38 -32v-14c0 -52 -1 -106 -4 -162c-1 -27 -5 -41 -10 -44s-16 -4 -32 -4zM112 504c56 4 112 6 168 6c16 0 18 -3 18 -24c3 -83 4 -146 4 -190v-12
c0 -24 0 -23 -24 -26c-65 -5 -130 -8 -194 -8c-19 0 -22 5 -22 18v10c-3 56 -4 113 -4 170v10c0 42 9 46 44 46h10z" />
    <glyph glyph-name="semicolon" unicode=";" horiz-adv-x="418" 
d="M96 240c13 0 34 -1 63 -2s52 -2 71 -2c16 0 49 2 60 2c47 0 71 -9 74 -28c1 -8 2 -23 2 -46c0 -16 0 -40 -1 -71s-1 -50 -1 -57c0 -88 -9 -153 -28 -196s-57 -77 -114 -102c-19 -9 -50 -14 -94 -14c-40 0 -60 5 -60 16l-2 6c-3 8 1 15 12 20c60 35 99 63 116 86
c20 28 30 61 30 100c0 13 -28 23 -92 28l-46 6c-16 9 -25 16 -26 20c0 15 0 46 1 93s1 77 1 89c0 45 5 52 34 52zM314 632h-80h-136c-25 0 -38 9 -38 26c0 61 2 136 6 224c3 32 5 36 26 36h230c35 0 38 -3 38 -32v-14c0 -73 -1 -138 -4 -194c-1 -27 -5 -41 -12 -44
c-4 -1 -14 -2 -30 -2z" />
    <glyph glyph-name="less" unicode="&#x3c;" horiz-adv-x="754" 
d="M342 816c-19 -33 -28 -54 -28 -62c0 -13 5 -29 16 -46c35 -63 95 -172 181 -327s148 -269 187 -341c8 -16 12 -25 12 -26c0 -7 -5 -10 -14 -10c-29 -1 -89 -2 -178 -2h-22c-17 1 -28 3 -32 6s-12 14 -24 34c-35 55 -99 170 -192 346s-157 287 -190 334
c-8 12 -12 20 -12 24c0 9 1 16 4 20c39 65 95 158 168 277s128 210 164 271c57 101 96 152 116 152h68h78c39 0 58 -5 58 -14c0 -5 -5 -17 -16 -34c-23 -43 -79 -143 -170 -300s-149 -258 -174 -302z" />
    <glyph glyph-name="equal" unicode="=" horiz-adv-x="706" 
d="M644 906c0 -12 0 -39 -1 -80s-1 -68 -1 -80c0 -27 -4 -34 -36 -34c-57 0 -142 -1 -254 -4s-197 -4 -254 -4c-32 0 -36 4 -36 20c0 5 2 23 2 34v138c0 37 3 44 22 44c55 0 139 -1 254 -2s200 -2 256 -2c43 0 48 -3 48 -30zM94 588c48 0 121 1 219 3s172 3 221 3
c15 0 73 -2 88 -2c12 0 18 -8 18 -20c0 -5 2 -23 2 -28c4 -68 6 -125 6 -172c0 -27 -7 -31 -42 -34h-10c-37 -3 -65 -4 -84 -4c-88 0 -215 1 -380 4c-32 1 -51 4 -57 9s-10 23 -11 55c-3 40 -4 90 -4 150c0 32 5 36 34 36z" />
    <glyph glyph-name="greater" unicode="&#x3e;" horiz-adv-x="748" 
d="M406 818c-25 47 -83 148 -174 303s-147 254 -170 297c-9 15 -14 27 -14 36c0 8 19 12 56 12c16 0 57 2 78 2c4 0 16 0 36 -1s31 -1 32 -1s3 1 6 2c13 0 27 -9 40 -26c8 -12 21 -34 38 -67s28 -52 32 -59c36 -63 91 -154 164 -273s129 -212 168 -277c4 -7 6 -13 6 -20
c0 -4 -4 -12 -12 -24c-32 -47 -94 -157 -186 -332s-155 -290 -190 -346c-12 -20 -20 -31 -24 -34s-15 -5 -32 -6c-11 0 -9 -2 -22 -2c-59 0 -117 1 -176 4c-9 0 -14 3 -14 10c0 4 3 13 10 26c105 196 225 418 360 666c11 17 16 33 16 46c0 9 -9 31 -28 64z" />
    <glyph glyph-name="question" unicode="?" horiz-adv-x="800" 
d="M486 -78c0 -12 -2 -19 -5 -20s-16 -3 -39 -4c-53 -3 -100 -4 -140 -4c-25 0 -40 2 -44 7s-6 20 -6 47v126c0 16 2 25 11 30s13 6 37 6c59 5 110 8 154 8c29 0 38 -7 38 -28c0 -17 -1 -45 -3 -82s-3 -66 -3 -86zM66 1102c0 101 29 189 86 264s142 112 254 112
c97 0 179 -38 245 -115s99 -162 99 -255c0 -141 -33 -242 -69 -290c-18 -24 -43 -56 -76 -97s-60 -80 -81 -119c-23 -41 -34 -113 -34 -216c0 -15 1 -41 2 -78s2 -63 2 -76c0 -16 -11 -24 -32 -24c-23 0 -77 3 -162 8c-40 3 -48 15 -48 50v104c0 61 5 119 14 174
c8 43 26 86 53 129s54 81 81 112s51 73 72 124s32 107 32 167c0 116 -39 174 -116 174c-69 0 -95 -40 -100 -136c-3 -43 -11 -54 -46 -54c-36 0 -82 3 -138 10c-25 1 -38 12 -38 32z" />
    <glyph glyph-name="at" unicode="@" horiz-adv-x="1398" 
d="M774 974c8 0 27 -1 56 -2s49 -2 58 -2c8 0 12 -4 12 -12c0 -11 -1 -30 -2 -59s-2 -50 -2 -63v-62c0 -39 1 -62 4 -70c4 -17 27 -26 70 -26c71 0 106 58 106 174c0 113 -26 202 -78 267s-143 97 -272 97c-145 0 -258 -50 -339 -149s-121 -226 -121 -379
c0 -113 44 -217 131 -312s187 -142 299 -142c72 0 151 18 203 34c26 8 57 21 94 39s63 32 80 42s44 27 83 50s63 38 74 45c16 9 28 14 36 14c20 0 34 -11 42 -34c14 -48 15 -34 34 -82c7 -16 10 -27 10 -34c0 -16 -23 -37 -42 -49c-11 -7 -33 -20 -38 -23
c-69 -43 -122 -75 -158 -96s-99 -50 -188 -85s-166 -53 -230 -53h-4c-200 1 -357 70 -472 206s-172 311 -172 524c0 187 70 353 211 500s300 220 477 220c355 0 532 -177 532 -530c0 -120 -26 -217 -79 -291s-119 -111 -199 -111c-23 0 -74 15 -154 46
c-53 -53 -114 -80 -182 -80s-125 22 -170 66s-68 107 -68 188c0 61 25 114 74 159s97 67 142 67c34 0 134 -28 134 -28h4c-3 27 -4 36 4 36zM588 726c0 -69 28 -86 76 -86c15 0 34 5 58 16s36 20 36 28v104c0 5 -10 11 -30 18s-39 10 -56 10c-19 0 -37 -11 -56 -32
s-28 -41 -28 -58z" />
    <glyph glyph-name="A" unicode="A" horiz-adv-x="918" 
d="M552 658c0 13 -3 37 -10 70c0 0 -5 30 -14 90c-8 60 -18 122 -30 185s-23 114 -34 151c-3 5 -5 24 -9 31s-10 17 -21 17c-5 0 -17 -27 -20 -40c-9 -59 -20 -135 -31 -229s-21 -166 -29 -217c0 -1 -1 -11 -2 -29s-2 -28 -2 -31c0 -11 15 -19 45 -24s55 -8 75 -8h4
c52 0 78 11 78 34zM894 106c5 -35 8 -53 8 -56c0 -23 -15 -34 -46 -34c-4 0 -15 0 -33 1s-33 1 -45 1h-74h-38c-32 0 -38 6 -46 54c-4 28 -10 79 -17 153s-13 125 -17 153v6c-5 23 -16 35 -32 36h-46c-44 -1 -91 -5 -142 -10c-27 -3 -32 -7 -40 -28c-8 -25 -15 -57 -20 -94
c-3 -19 -8 -53 -17 -103s-14 -88 -17 -115c0 -8 -4 -35 -5 -40c-1 -3 -2 -7 -4 -13c-4 -13 -19 -19 -47 -19c-5 0 -52 3 -140 8c-39 4 -58 17 -58 38c0 15 6 52 18 112c15 84 45 268 92 553s86 507 118 667c4 20 8 32 12 36s16 6 36 6h6c83 0 179 -3 290 -10
c25 -1 41 -5 47 -10s12 -19 19 -42c60 -245 139 -662 238 -1250z" />
    <glyph glyph-name="B" unicode="B" horiz-adv-x="782" 
d="M304 230c43 0 86 19 131 56s67 83 67 138c0 56 -13 93 -38 112s-59 28 -102 28c-32 0 -42 -1 -59 -6s-23 -17 -23 -38v-208c0 -81 12 -82 24 -82zM354 1210c-61 0 -68 -6 -68 -30v-86c0 -56 2 -105 2 -164c0 -24 6 -26 62 -26c72 0 120 66 120 162c0 44 -7 79 -22 105
s-46 39 -94 39zM180 1454h30c323 0 484 -117 484 -352c0 -157 -55 -275 -166 -354c65 -31 116 -70 152 -119s54 -116 54 -201c0 -173 -50 -289 -155 -350c-53 -31 -111 -52 -175 -63s-143 -17 -236 -17c-52 0 -85 5 -98 15s-20 37 -20 81v32c0 27 1 77 4 152
c16 349 25 703 26 1060c0 55 5 88 15 99s38 17 85 17z" />
    <glyph glyph-name="C" unicode="C" horiz-adv-x="1134" 
d="M604 -20c-184 0 -323 69 -416 206s-140 317 -140 538c0 200 52 371 155 512s243 212 419 212c149 0 265 -44 334 -124s104 -165 128 -282c0 -5 2 -11 2 -14c2 -42 -34 -30 -76 -34c-51 -5 -96 -8 -136 -8c-32 0 -47 9 -68 52c-39 79 -105 118 -198 118
c-80 0 -150 -43 -209 -130s-89 -187 -89 -302c0 -131 28 -242 84 -334s131 -138 226 -138c27 0 58 9 93 27s61 41 77 69c7 11 12 25 16 44s10 32 18 40s24 13 48 14c9 0 33 1 72 4s67 4 84 4c40 0 60 -14 60 -42c0 -124 -51 -227 -153 -309s-212 -123 -331 -123z" />
    <glyph glyph-name="D" unicode="D" horiz-adv-x="862" 
d="M64 610c0 79 -2 203 -6 373s-6 296 -6 377c0 41 4 68 13 79s30 17 65 17c173 0 301 -8 382 -24c92 -17 165 -84 220 -201s82 -242 82 -375c0 -205 -21 -368 -64 -488c-45 -127 -108 -220 -188 -279s-188 -89 -324 -89c-39 0 -69 1 -92 2c-33 3 -54 11 -63 25
s-13 39 -13 75s-1 121 -3 256s-3 219 -3 252zM326 1202c-21 0 -32 -23 -32 -68s1 -171 2 -377s2 -334 2 -385c0 -43 25 -64 76 -64c48 0 94 50 139 151s67 193 67 277c0 120 -17 223 -53 316s-108 150 -201 150z" />
    <glyph glyph-name="E" unicode="E" horiz-adv-x="676" 
d="M490 836c40 0 52 -6 52 -38v-202c0 -17 -9 -26 -28 -26c-69 -3 -121 -4 -154 -4c-45 -3 -52 -14 -52 -62v-198c0 -36 21 -54 62 -54c-3 0 177 4 212 4c19 0 30 -2 34 -7s6 -20 6 -45l4 -160c0 -37 -7 -46 -34 -46c-5 0 -27 2 -38 2h-160c-83 0 -167 4 -252 12
c-72 5 -86 38 -86 126v164c0 73 5 419 16 1038c1 47 6 75 15 85s34 15 77 15c27 0 65 0 116 -1s87 -1 108 -1c4 0 28 0 71 1s77 1 101 1c28 0 45 -4 51 -11s10 -28 13 -63c3 -67 4 -115 4 -146c0 -37 -12 -51 -60 -54c-93 -5 -165 -8 -216 -8c-24 0 -48 -18 -48 -50
c0 -31 0 -69 1 -116s1 -84 1 -112c0 -31 16 -46 48 -46c11 0 30 0 57 1s54 1 79 1z" />
    <glyph glyph-name="F" unicode="F" horiz-adv-x="628" 
d="M106 1446c48 0 121 -2 218 -6s169 -6 216 -6c32 0 40 -9 40 -36c0 -8 -2 -35 -2 -48v-34c0 -88 -12 -132 -36 -132c-12 0 -35 1 -68 2s-57 2 -72 2h-24c-35 0 -52 -13 -52 -40c0 -19 0 -47 -1 -85s-1 -66 -1 -85v-188c0 -28 29 -42 88 -42c5 0 18 0 38 1s31 1 34 1
c32 0 42 -9 42 -52c0 -12 0 -32 -1 -60s-1 -49 -1 -64c0 -31 -2 -48 -7 -53s-21 -8 -49 -11c-37 -3 -75 -4 -112 -4c-36 0 -36 -17 -36 -52v-4v-6c0 -28 -1 -84 -3 -168s-3 -141 -3 -172v-34c0 -59 -4 -70 -52 -70c-53 0 -95 1 -126 2c-33 1 -54 6 -61 14s-11 27 -11 56v4
c0 48 -1 116 -2 204s-2 151 -2 190c0 47 0 115 1 204s1 157 1 204c0 145 -2 311 -6 498v26c0 37 7 44 50 44z" />
    <glyph glyph-name="G" unicode="G" horiz-adv-x="1136" 
d="M710 706c39 0 97 1 176 2s135 2 170 2c19 0 28 -7 28 -20c1 -29 2 -71 2 -124c0 -144 -21 -255 -64 -334c-43 -80 -101 -143 -175 -189s-154 -69 -241 -69c-197 0 -340 62 -427 185s-131 309 -131 557c0 235 46 416 138 544s234 192 426 192c119 0 218 -36 299 -109
s135 -171 163 -295c1 -8 2 -18 2 -30c0 -35 -11 -41 -64 -46c-51 -7 -101 -10 -152 -10c-41 0 -52 9 -61 26c-4 8 -11 37 -19 56c-41 104 -91 156 -148 156c-109 0 -195 -70 -238 -175s-64 -218 -64 -333c0 -309 84 -464 252 -464c80 0 140 32 179 89s56 102 77 177h-50
c-1 0 -43 -2 -124 -6c-27 0 -40 15 -40 46c0 7 1 21 3 43s3 38 3 47c0 13 0 40 1 47s-1 23 6 24c10 9 26 11 73 11z" />
    <glyph glyph-name="H" unicode="H" horiz-adv-x="878" 
d="M310 1442c0 -20 0 -60 -1 -120s-1 -111 -1 -152c0 -32 0 -78 1 -137s1 -108 1 -147v-12c0 -29 0 -30 32 -30c24 0 55 0 92 -1s65 -1 84 -1c15 0 23 3 26 8s5 22 6 50c3 173 7 341 14 504c3 40 12 46 44 46c72 0 125 -1 160 -2h20c27 0 40 -8 40 -24v-2
c-3 -95 -9 -302 -18 -622s-15 -570 -16 -750c0 -43 -13 -50 -64 -50h-168h-6c-27 0 -28 3 -28 48c0 56 1 136 2 241s2 182 2 231c0 32 -9 48 -26 48c-13 0 -39 0 -78 -1s-63 -1 -74 -1c-55 1 -50 -3 -52 -58c-1 -27 -3 -95 -4 -206s-3 -189 -6 -234c-3 -40 -7 -62 -14 -66
c-3 -3 -23 -5 -60 -6c-8 0 -25 -2 -30 -2c-37 0 -62 1 -74 2c-53 5 -60 8 -60 32c0 59 1 143 4 252c3 107 5 206 6 298s2 192 2 300s1 201 2 280v98v174c0 16 6 24 18 24h202c15 0 22 -4 22 -12z" />
    <glyph glyph-name="I" unicode="I" horiz-adv-x="394" 
d="M56 54c0 176 3 418 10 726s11 505 12 592v10c0 25 3 42 9 49s22 12 49 13c51 4 98 6 142 6h30c27 0 26 -2 26 -34c0 -155 -1 -380 -4 -676s-4 -525 -4 -686v-26c0 -27 -6 -28 -54 -28c-75 0 -135 5 -182 16c-29 5 -34 14 -34 38z" />
    <glyph glyph-name="J" unicode="J" horiz-adv-x="758" 
d="M704 1406c0 -55 -1 -136 -2 -244s-2 -190 -2 -246c0 -23 0 -59 1 -109s1 -90 1 -119c0 -63 0 -112 -1 -148s-3 -83 -8 -141s-11 -104 -19 -138s-20 -72 -37 -113c-33 -83 -79 -120 -152 -152c-37 -16 -78 -24 -125 -24c-107 0 -187 40 -241 121s-81 187 -81 319
c0 23 8 34 24 34c1 0 54 -4 158 -12c16 0 24 -51 31 -102s42 -102 101 -102c51 0 85 44 98 125c7 41 11 77 13 108s3 70 3 117c0 21 0 54 1 99s1 77 1 97c0 131 -2 241 -6 332c-1 20 -4 32 -8 36s-18 6 -42 6h-4c-24 0 -72 -3 -145 -9s-130 -9 -171 -9c-32 0 -34 1 -34 28v6
c0 24 2 94 6 210v20c1 33 5 51 12 54c4 1 11 2 20 2h14c83 0 184 -2 303 -5s208 -5 267 -5c16 0 24 -12 24 -36z" />
    <glyph glyph-name="K" unicode="K" horiz-adv-x="830" 
d="M62 1366c0 48 9 70 44 70c15 0 36 1 65 3s50 3 65 3h50c27 0 32 -5 32 -42v-32c0 -27 -1 -68 -2 -124s-2 -101 -2 -134c0 -20 0 -44 1 -73s1 -48 1 -57v-44c8 0 34 41 67 109c17 34 32 67 47 98s32 67 51 107s32 67 39 82c8 16 23 52 28 61c3 5 7 11 13 18
c12 15 24 17 45 17c4 0 54 -4 150 -12c31 -4 46 -10 46 -18c0 -13 -19 -27 -28 -50c-19 -33 -67 -139 -144 -317s-116 -272 -116 -283c0 -4 17 -53 52 -147s74 -197 119 -310s78 -190 101 -233c11 -19 16 -32 16 -40c0 -12 -13 -18 -38 -18h-176h-4c-29 0 -47 2 -54 7
s-14 19 -22 43c-16 47 -48 127 -95 240s-90 207 -129 282c-3 0 -4 -7 -4 -22c0 -105 2 -219 6 -340c0 -12 1 -42 4 -90s4 -83 4 -104c0 -12 -7 -18 -20 -18c-72 0 -137 5 -194 14c-13 1 -20 2 -20 3s-1 8 -2 23c-3 75 -4 128 -4 160c0 131 1 326 4 585s4 454 4 583z" />
    <glyph glyph-name="L" unicode="L" horiz-adv-x="658" 
d="M48 48c0 119 4 308 11 567s11 456 11 591c0 64 1 111 2 140c1 70 -4 89 58 98c32 5 69 8 110 8h34c40 0 48 -7 48 -60v-1058c0 -41 11 -62 32 -62h190c27 0 43 -2 48 -6s9 -17 10 -38c5 -43 8 -101 8 -176c0 -21 -3 -34 -8 -39s-23 -8 -54 -11c-48 -4 -97 -6 -148 -6
c-31 0 -78 1 -141 3s-112 3 -145 3c-56 0 -66 9 -66 46z" />
    <glyph glyph-name="M" unicode="M" horiz-adv-x="1072" 
d="M70 866c0 48 0 125 -1 231s-1 186 -1 239c0 40 4 67 11 80s26 20 55 20c15 0 43 1 86 2s69 2 80 2c40 0 42 -1 50 -20c15 -31 36 -80 63 -148s50 -120 67 -156l72 -126c55 61 131 185 228 372c5 8 15 33 19 37s11 20 18 24c12 7 24 13 49 13c27 0 57 -1 92 -4
c61 -6 60 1 66 -44c0 -3 -2 -17 -2 -22c-20 -577 -31 -1003 -32 -1276c0 -51 -16 -76 -48 -76c-20 0 -51 1 -94 3s-74 3 -94 3c-21 0 -26 5 -26 48c0 172 3 307 8 404c9 196 14 305 14 328c0 21 -1 32 -2 32c-5 0 -21 -22 -48 -66c-33 -53 -75 -134 -126 -242
c-21 -47 -39 -70 -54 -70c-10 -5 -28 31 -39 58c-7 16 -23 59 -31 78c-33 85 -55 141 -66 168c-27 67 -42 100 -46 100s-9 -50 -14 -150c-13 -240 -20 -457 -20 -650v-26c0 -24 -11 -32 -70 -32h-150c-21 0 -28 7 -28 44v70c0 88 2 218 7 391s7 293 7 361z" />
    <glyph glyph-name="N" unicode="N" horiz-adv-x="952" 
d="M70 958c0 44 0 111 -1 201s-1 158 -1 205c0 33 4 54 13 62s28 12 57 12c11 0 45 -2 66 -2c32 0 49 -9 53 -14c2 -3 5 -11 10 -24s8 -23 9 -28l366 -860l16 828c0 29 0 55 6 74c5 15 13 22 34 22c11 0 37 0 78 1s69 1 84 1c32 0 32 -1 32 -30v-42v-84
c0 -109 0 -249 1 -419s1 -294 1 -371c0 -32 0 -82 1 -150s1 -121 1 -160c0 -13 0 -34 -1 -63s-1 -51 -1 -67c0 -35 -11 -52 -34 -52c-24 0 -60 3 -107 10s-82 11 -103 12c-48 3 -61 15 -80 60c-21 48 -51 117 -89 206s-60 141 -67 154l-120 284c-1 -224 -2 -339 -2 -344
c0 -37 0 -84 1 -140s1 -104 1 -144v-44c0 -45 -6 -52 -38 -52c-29 0 -85 3 -168 10c-32 3 -38 9 -38 30c0 77 1 140 4 188c11 256 16 499 16 730z" />
    <glyph glyph-name="O" unicode="O" horiz-adv-x="1236" 
d="M1194 780c0 -249 -55 -444 -165 -583s-253 -209 -429 -209c-179 0 -317 67 -415 202s-147 323 -147 566c0 191 55 353 166 488s255 202 432 202c169 0 305 -66 406 -198s152 -288 152 -468zM626 308c96 0 174 42 233 126s89 176 89 276c0 124 -27 231 -80 322
s-129 136 -228 136s-181 -41 -246 -123s-98 -185 -98 -309c0 -113 31 -213 94 -299s141 -129 236 -129z" />
    <glyph glyph-name="P" unicode="P" horiz-adv-x="904" 
d="M160 1450c17 0 44 0 81 1s64 1 83 1h48c135 -4 250 -43 346 -118s144 -165 144 -272c0 -289 -139 -463 -418 -520l-100 -18v-80c-3 -195 -5 -313 -8 -354c-3 -45 -8 -71 -16 -78c-8 -8 -28 -12 -60 -12h-140c-59 0 -72 10 -72 42c0 7 1 29 4 66c3 96 8 231 16 406
s14 332 19 471s7 264 7 375v2v34c0 43 10 54 66 54zM352 804c3 -32 7 -38 26 -38c68 0 120 16 155 48s53 94 53 186c0 155 -39 236 -162 236c-49 0 -75 -9 -78 -26c-1 -20 -2 -69 -2 -146c0 -115 3 -201 8 -260z" />
    <glyph glyph-name="Q" unicode="Q" horiz-adv-x="1242" 
d="M606 318c61 0 117 25 166 76s86 109 110 176s36 131 36 192c0 111 -29 210 -87 297s-133 131 -225 131c-100 0 -178 -44 -235 -133s-85 -190 -85 -305c0 -107 30 -206 91 -297s137 -137 229 -137zM584 1456c175 0 317 -62 428 -187s166 -290 166 -495
c0 -149 -33 -295 -100 -436l-30 -64c13 0 34 1 63 2s49 2 61 2c27 0 18 -8 18 -36c0 -7 -1 -37 -3 -91s-3 -86 -3 -95c0 -27 -1 -46 -9 -46c-1 0 -12 -4 -15 -4h-26c-119 -5 -255 -8 -408 -8c-223 0 -391 70 -506 210s-172 329 -172 568c0 183 52 342 157 477
s231 203 379 203z" />
    <glyph glyph-name="R" unicode="R" horiz-adv-x="848" 
d="M368 758h30c52 0 90 31 115 93s37 134 37 217c0 112 -50 168 -150 168c-53 0 -80 -12 -80 -36c0 -35 -1 -103 -3 -204s-3 -169 -3 -202c0 -32 14 -36 54 -36zM186 1440c21 0 49 1 84 2s63 2 86 2c301 0 452 -113 452 -338c0 -228 -75 -402 -226 -522
c-19 -13 -28 -23 -28 -30c0 -5 2 -10 6 -14c5 -5 36 -68 92 -188s98 -212 126 -276c16 -35 24 -55 24 -60c0 -13 -17 -20 -50 -20c-40 -1 -91 -2 -154 -2h-22c-21 0 -22 1 -38 36c-41 95 -86 190 -134 286s-83 155 -104 176c-7 0 -10 -20 -10 -60l4 -76c0 -13 0 -32 1 -56
s1 -41 1 -52c0 -7 2 -66 6 -178v-42c0 -19 -9 -28 -26 -28h-18c-35 0 -76 2 -124 6c-36 3 -58 8 -67 17s-13 25 -13 49v206c0 109 3 273 8 492s8 381 8 488c0 20 1 53 4 98c3 37 8 61 17 71s26 15 53 15c8 0 31 -2 42 -2z" />
    <glyph glyph-name="S" unicode="S" horiz-adv-x="712" 
d="M590 1180c-8 0 -33 2 -74 7s-67 7 -78 7c-72 0 -108 -46 -108 -138c0 -111 122 -217 217 -331c65 -79 119 -192 119 -317c0 -275 -107 -419 -320 -432h-12c-77 0 -164 59 -260 176c-19 24 -28 46 -28 66c0 15 6 29 18 42c31 31 49 49 56 54c28 24 44 36 48 36
c7 0 21 -9 44 -28c10 -8 55 -44 67 -52c15 -11 42 -24 61 -24c55 0 82 43 82 130c0 21 -3 41 -8 58c-15 57 -43 114 -84 170s-82 103 -121 140s-75 86 -107 146s-48 124 -48 192c0 105 35 194 105 265s159 107 267 107c20 0 64 -8 133 -23s103 -32 103 -49
c0 -8 -2 -18 -6 -30c-16 -53 -27 -93 -34 -120c-12 -37 -8 -52 -32 -52z" />
    <glyph glyph-name="T" unicode="T" horiz-adv-x="792" 
d="M268 1446h394c40 0 64 -5 72 -15s12 -41 12 -93c0 -16 -2 -56 -2 -72v-62c0 -5 0 -12 -1 -20c-1 -16 -1 -16 -8 -25c-10 -14 -27 -13 -63 -13h-54c-40 0 -64 -4 -72 -12s-12 -32 -12 -72c0 -100 -1 -271 -2 -513s-2 -414 -2 -515v-16c0 -12 -15 -18 -44 -18h-30
c-16 0 -42 1 -78 3s-56 3 -60 3c-43 3 -50 14 -50 46v92c0 105 2 257 6 455s6 348 6 449v74c0 19 0 26 -40 26l-152 -2c-32 0 -38 4 -38 28v222v2c0 43 3 46 32 46h22c17 0 44 0 80 1s64 1 84 1z" />
    <glyph glyph-name="U" unicode="U" horiz-adv-x="866" 
d="M124 1442c16 0 39 2 68 5s51 5 66 5c29 0 34 -9 34 -30v-44v-132c0 -65 -1 -175 -3 -330s-3 -262 -3 -322c0 -193 47 -290 142 -290c73 0 110 109 110 328c0 27 -1 62 -2 106s-2 73 -2 86c0 77 -2 183 -5 316s-5 217 -5 250v32c0 19 3 19 38 22c69 5 129 8 180 8
c43 0 50 -11 50 -48c0 -68 1 -118 2 -150c9 -171 14 -420 14 -748c0 -347 -111 -526 -386 -526c-131 0 -225 65 -276 150c-25 43 -45 98 -60 166s-24 132 -28 192s-6 131 -6 212c0 187 5 401 14 644c3 49 8 78 16 86s22 12 42 12z" />
    <glyph glyph-name="V" unicode="V" horiz-adv-x="1016" 
d="M510 498l176 784c3 12 6 30 10 55s7 42 10 53c4 27 9 43 14 48s21 8 48 8h166c40 0 60 -8 60 -24c0 -1 -3 -15 -8 -42c-20 -79 -61 -255 -124 -530s-114 -481 -154 -618c-19 -59 -39 -129 -60 -210c-4 -13 -10 -20 -18 -20h-22c-95 0 -166 1 -214 4c-13 3 -13 1 -24 28
c-32 99 -64 211 -97 336s-57 222 -73 291s-42 190 -79 364s-59 278 -67 313c-5 27 -8 41 -8 42c0 11 12 19 36 24c76 16 143 24 200 24c25 0 41 -2 47 -7s11 -18 15 -39c8 -41 25 -141 50 -300s49 -296 70 -411s37 -173 46 -173z" />
    <glyph glyph-name="W" unicode="W" horiz-adv-x="1308" 
d="M880 598l152 762c5 18 10 37 15 45c5 11 19 15 39 15c67 0 119 -3 156 -10c32 -5 48 -16 48 -32c0 -8 -3 -25 -10 -52l-248 -1284c-7 -23 1 -29 -32 -36c-13 -3 -59 -4 -138 -4c-12 0 -29 26 -38 55c-5 17 -17 50 -22 63c-16 43 -33 98 -51 166s-30 111 -35 128l-16 48
c-3 0 -9 -14 -20 -42c-21 -53 -44 -112 -69 -176s-44 -115 -59 -154c-5 -11 -11 -23 -16 -38c-11 -32 -13 -33 -42 -36c-9 2 -12 -3 -32 -4c-29 0 -34 11 -50 64c-149 516 -273 948 -370 1296c-8 29 -12 45 -12 48c0 13 21 20 62 20h82h124c8 0 19 -30 32 -90
c3 -15 56 -226 160 -634c11 -43 17 -64 20 -64c4 -5 3 35 12 70c9 51 27 139 54 266l40 192c8 41 0 48 44 52c69 8 87 6 97 -10c9 -10 7 -37 13 -66c48 -229 81 -399 98 -510c5 -32 9 -48 12 -48z" />
    <glyph glyph-name="X" unicode="X" horiz-adv-x="930" 
d="M920 22c0 -15 -32 -22 -96 -22h-42c-9 0 -26 1 -51 2s-39 2 -43 2c-29 0 -40 9 -56 52l-158 474c-13 -41 -40 -113 -81 -216s-69 -177 -85 -224c-13 -37 -16 -44 -33 -60c-9 -8 -20 -13 -33 -14c-35 -5 -64 -8 -88 -8c-12 0 -32 0 -59 1s-44 1 -51 1c-9 0 -14 6 -14 18
c0 5 8 32 24 80c24 65 64 169 119 312s100 264 133 364c-23 47 -65 143 -128 290s-107 247 -134 300c-7 13 -10 28 -10 44c0 9 15 14 46 14c128 4 195 6 200 6c27 0 39 -7 44 -11s13 -36 18 -47c17 -43 42 -108 74 -195s53 -143 62 -167c21 41 46 103 75 185s46 130 51 143
c21 57 39 87 54 88c136 12 205 18 206 18c31 0 46 -9 46 -28c0 -8 -4 -23 -12 -44c-17 -48 -50 -122 -97 -223s-90 -190 -127 -268s-56 -120 -56 -127c0 -11 3 -21 8 -30c53 -96 118 -253 191 -449c37 -98 63 -167 79 -207c9 -22 24 -45 24 -54z" />
    <glyph glyph-name="Y" unicode="Y" horiz-adv-x="906" 
d="M150 1422h110c32 -3 47 0 57 -12c4 -8 4 -5 8 -17c2 -6 3 -10 3 -11c0 -3 5 -27 8 -32c16 -68 65 -231 148 -488l48 174c31 116 51 205 62 266c4 24 8 44 12 60c3 8 6 29 7 33c1 2 2 6 3 11c3 11 5 10 8 17c8 12 24 14 58 17c88 5 150 8 186 8c16 0 24 -5 24 -14
c0 -5 -3 -18 -10 -38c-188 -555 -282 -883 -282 -986c0 -17 0 -62 1 -135s1 -142 1 -207c0 -32 -3 -51 -8 -58s-20 -10 -44 -10h-74h-96c-59 0 -68 6 -68 46c0 51 2 127 7 230s7 181 7 234c0 8 -13 60 -40 156s-63 213 -108 352s-87 254 -126 346c-9 24 -14 38 -14 42
c0 12 11 18 34 18c4 0 15 0 33 -1s33 -1 45 -1z" />
    <glyph glyph-name="Z" unicode="Z" horiz-adv-x="708" 
d="M426 1156c-48 4 -85 6 -112 6c-41 0 -106 1 -194 4c-31 1 -49 5 -54 11s-9 26 -12 59c-7 53 -10 101 -10 142v18c0 20 3 31 8 32c37 9 108 14 212 14c29 0 77 0 142 1s121 1 166 1c75 0 90 -25 90 -94v-122c0 -51 -2 -95 -6 -134c-3 -32 -16 -68 -39 -117
c-11 -25 -20 -45 -25 -61c-17 -51 -47 -129 -88 -235s-77 -198 -106 -275s-44 -119 -44 -124c0 -11 18 -16 54 -16c5 0 19 2 22 2c72 0 126 -1 162 -2c35 0 50 -7 58 -19c3 -4 6 -22 6 -27s2 -29 2 -40v-102c-3 -39 -9 -61 -18 -68s-35 -11 -78 -12h-130l-272 2
c-51 0 -82 5 -95 14s-19 37 -19 82v26c0 108 6 174 18 198c33 73 79 178 137 315s108 254 150 353s67 155 75 168z" />
    <glyph glyph-name="bracketleft" unicode="[" horiz-adv-x="440" 
d="M56 -28c0 137 2 348 6 632s6 492 6 624c0 45 1 113 4 204c0 37 -5 52 36 52c28 0 71 1 128 4s99 4 126 4c21 0 32 -13 32 -40v-28c0 -40 -5 -44 -32 -44h-16c-61 0 -92 -9 -92 -26c-7 -192 -10 -487 -10 -884v-134v-98v-16c0 -8 0 -26 1 -55s1 -50 1 -65
c0 -20 5 -30 14 -30h16c43 0 71 -1 84 -2s22 -5 25 -10s5 -15 5 -30v-48c0 -24 -1 -23 -38 -26c-64 -3 -112 -4 -144 -4c-13 0 -34 0 -63 1s-52 1 -69 1c-13 0 -20 6 -20 18z" />
    <glyph glyph-name="backslash" unicode="\" horiz-adv-x="726" 
d="M458 4c-17 1 -28 7 -32 18c-47 149 -90 299 -130 448s-82 314 -127 494s-84 332 -117 456c-3 11 -4 17 -4 20c0 9 9 15 26 16s37 2 58 2h66c44 0 69 -13 76 -38c28 -93 85 -295 172 -605s162 -568 226 -773c4 -15 6 -25 6 -30c0 -11 -13 -16 -40 -16c-48 0 -108 3 -180 8
z" />
    <glyph glyph-name="bracketright" unicode="]" horiz-adv-x="442" 
d="M386 -28c0 -12 -7 -18 -22 -18c-17 0 -40 0 -68 -1s-49 -1 -62 -1c-33 0 -82 1 -146 4c-37 3 -38 2 -38 26v48c0 29 3 37 30 40c13 1 42 2 86 2h16c9 0 14 10 14 30v120v16c0 8 0 23 1 45s1 40 1 53v134c0 397 -3 692 -10 884c0 17 -31 26 -94 26h-16c-27 0 -30 4 -30 44
v28c0 29 3 40 30 40s69 -1 127 -4s101 -4 129 -4c25 0 30 -7 35 -16c1 -3 1 -28 1 -36c3 -91 4 -159 4 -204c0 -132 2 -340 6 -624s6 -495 6 -632z" />
    <glyph glyph-name="asciicircum" unicode="^" horiz-adv-x="628" 
d="M260 1590h138c35 0 46 -12 62 -52c45 -100 80 -183 104 -250l4 -16c0 -11 -13 -8 -73 -7c-30 1 -52 1 -67 1h-8c-9 0 -15 2 -18 6c0 3 -1 5 -2 6c-8 15 -17 34 -26 59s-16 42 -20 51c-19 40 -25 37 -46 8c-4 -5 -21 -36 -52 -92c-13 -22 -13 -28 -46 -28h-128
c-17 0 -26 3 -26 8c0 3 6 15 18 36c7 12 26 46 58 101s56 97 72 125c16 29 35 44 56 44z" />
    <glyph glyph-name="underscore" unicode="_" horiz-adv-x="826" 
d="M80 2h660c24 0 22 -13 22 -72c0 -12 -1 -28 -2 -49s-2 -33 -2 -37c0 -19 -5 -20 -32 -20c-59 0 -165 -1 -319 -4s-261 -4 -321 -4c-19 0 -20 -1 -20 20c0 11 0 36 -1 76s-1 65 -1 74c0 11 5 16 16 16z" />
    <glyph glyph-name="grave" unicode="`" horiz-adv-x="436" 
d="M68 1584c-11 17 -16 27 -16 30c0 5 13 8 40 8c20 1 48 3 85 5s64 3 81 3c13 0 21 -3 24 -7s7 -18 10 -23c28 -75 52 -137 72 -186c11 -24 16 -37 16 -40c0 -11 -11 -16 -32 -16h-116c-47 -1 -43 6 -58 28c-9 16 -26 47 -49 93s-42 81 -57 105z" />
    <glyph glyph-name="a" unicode="a" horiz-adv-x="942" 
d="M878 -2h-216c-24 0 -20 21 -20 36c-4 29 -12 95 -23 196s-22 176 -33 224c-8 20 -35 30 -82 30c-85 0 -134 -6 -146 -18c-13 -13 -24 -50 -33 -130c-5 -40 -8 -71 -10 -94s-5 -61 -10 -116s-7 -86 -7 -94c-3 -27 -8 -34 -32 -34c-9 0 -26 0 -50 1s-44 1 -60 1
c-22 0 -82 -2 -98 -2c-20 0 -30 5 -30 14c0 8 5 39 14 92c141 863 213 1299 214 1310s3 19 6 26c5 13 21 24 48 24c73 0 171 -4 294 -12c37 -3 55 -14 59 -22c2 -4 4 -13 7 -26l232 -1354c3 -19 4 -30 4 -34c0 -12 -9 -18 -28 -18zM366 770v-6c0 -21 24 -32 72 -32
c29 0 47 -4 74 -4c31 0 46 7 46 20c0 31 -8 90 -24 179s-32 165 -48 229c-8 24 3 32 -34 32c-21 2 -20 -17 -24 -38c-39 -227 -59 -353 -62 -380z" />
    <glyph glyph-name="b" unicode="b" horiz-adv-x="848" 
d="M498 1034c0 65 -11 108 -34 128s-54 30 -94 30h-34c-24 0 -39 -3 -44 -10s-9 -25 -10 -56c-1 -23 -2 -59 -2 -108c0 -112 1 -183 2 -212c0 -16 23 -24 70 -24c45 0 81 26 107 78s39 110 39 174zM278 530c0 -20 0 -60 1 -121s1 -100 1 -119c0 -44 5 -66 16 -66
s29 -1 56 -2s43 -2 48 -2c96 0 144 55 144 166c0 112 -81 164 -196 164c-47 0 -70 -7 -70 -20zM70 46c0 96 -2 238 -5 427s-5 330 -5 423c0 51 -1 135 -2 252s-2 203 -2 256c0 40 13 46 50 46c11 0 45 2 58 2c91 0 168 -5 232 -14s125 -27 182 -53
c115 -52 174 -156 174 -311c0 -109 -31 -203 -92 -280c-17 -24 -59 -85 -68 -98c4 -3 17 -10 40 -22s38 -21 45 -27s20 -16 39 -29s32 -26 40 -39c28 -40 61 -105 56 -191c-1 -93 -29 -182 -83 -267s-122 -127 -203 -127c-135 0 -271 6 -408 18c-43 3 -48 10 -48 34z" />
    <glyph glyph-name="c" unicode="c" horiz-adv-x="824" 
d="M704 6h-48c-177 0 -324 65 -439 194s-173 308 -173 536c0 220 62 392 185 517s294 187 513 187c20 0 30 -11 30 -32v-26c0 -8 0 -26 -1 -54s-1 -49 -1 -62c0 -38 -5 -52 -20 -56c-11 -3 -8 -4 -25 -5c-9 -1 -15 -1 -19 -1c-252 -24 -378 -168 -378 -432
c0 -137 32 -252 96 -343s145 -150 244 -177c13 -3 47 -12 52 -13c3 -1 7 -4 12 -9c11 -11 11 -23 14 -52c3 -40 12 -88 12 -128c0 -37 -11 -44 -54 -44z" />
    <glyph glyph-name="d" unicode="d" horiz-adv-x="1012" 
d="M52 124c0 69 2 173 7 312s7 243 7 314c0 225 5 421 14 588c3 48 9 78 19 90s31 18 63 18c111 0 205 -5 284 -16s153 -30 222 -59s125 -68 166 -118c83 -100 134 -261 134 -485c0 -131 -32 -256 -96 -377s-150 -218 -258 -292s-222 -111 -342 -111c-43 0 -80 3 -112 8
c-48 8 -78 19 -90 34s-18 46 -18 94zM350 1158c-20 -231 -30 -503 -30 -816c0 -24 9 -36 28 -36c92 0 170 51 235 153s97 218 97 347c0 112 -26 204 -77 277s-122 109 -211 109c-27 0 -41 -11 -42 -34z" />
    <glyph glyph-name="e" unicode="e" horiz-adv-x="622" 
d="M562 1410v-14c0 -25 1 -57 2 -95s2 -69 2 -93c0 -20 -14 -30 -42 -30h-22c-12 0 -32 0 -60 1s-49 1 -62 1c-40 0 -60 -11 -60 -32c0 -19 -1 -62 -2 -129s-2 -111 -2 -131c0 -15 14 -22 42 -22c17 0 48 1 91 4s73 4 89 4c12 0 14 -8 17 -20c1 -5 1 -23 1 -28
c4 -80 6 -141 6 -184c0 -29 -9 -34 -38 -34h-12c-17 -1 -46 -2 -86 -2h-100c-5 0 -9 -3 -10 -9s-2 -25 -2 -57v-248c0 -16 16 -24 48 -24c21 0 49 0 84 -1s64 -1 88 -1c21 0 32 -11 32 -34v-126v-66c0 -20 -2 -26 -11 -30c-4 -4 -19 -6 -33 -6c-49 -5 -107 -8 -172 -8
c-27 0 -67 1 -121 2s-95 2 -123 2c-45 0 -50 6 -50 38c0 145 1 356 3 631s3 488 3 639v54c0 35 2 56 7 64s15 12 31 12c20 0 47 1 80 2s59 2 78 2c61 0 148 -1 260 -4c40 -3 44 -7 44 -28z" />
    <glyph glyph-name="f" unicode="f" horiz-adv-x="700" 
d="M648 1420c0 -21 1 -58 2 -111s2 -90 2 -111s-5 -24 -34 -24c-28 0 -76 -1 -145 -4s-115 -4 -139 -4c-21 0 -24 -18 -24 -98v-162v-80c0 -19 21 -28 62 -28h70c11 0 28 0 51 1s39 1 47 1c23 0 34 -17 34 -50c0 -16 1 -44 2 -84s2 -67 2 -80c0 -40 -9 -42 -46 -42
c-20 0 -55 -1 -105 -3s-82 -3 -95 -3c-27 0 -32 -5 -32 -48c0 -52 -1 -128 -4 -227s-4 -178 -4 -235c0 -24 -3 -32 -30 -32c-11 0 -26 1 -46 2s-33 2 -40 2h-90c-27 0 -30 4 -30 44v70c0 65 1 167 3 305s3 234 3 289c0 69 0 173 -1 311s-1 247 -1 327c0 40 3 65 10 75
s25 15 54 15c64 0 144 0 239 1s174 1 237 1c32 0 48 -6 48 -18z" />
    <glyph glyph-name="g" unicode="g" 
d="M646 468c-1 16 -2 65 -2 146c0 28 12 36 28 39c8 1 35 3 46 3c56 3 99 4 128 4c17 0 43 0 76 -1s59 -1 76 -1c31 0 50 -3 57 -8s11 -20 11 -44c0 -3 -2 -19 -2 -24c0 -217 -41 -374 -124 -471s-201 -145 -354 -145c-361 0 -542 263 -542 788c0 176 48 348 135 484
c43 68 100 123 171 164s149 62 236 62c137 0 248 -40 332 -120s133 -179 146 -296c3 -27 4 -42 4 -46c0 -19 -5 -30 -16 -35s-35 -7 -74 -7c-56 0 -100 1 -132 2c-35 3 -49 9 -53 13s-10 38 -15 51c-16 48 -43 88 -81 119s-76 47 -115 47c-76 0 -139 -49 -190 -148
s-76 -201 -76 -308c0 -131 24 -246 71 -347s112 -151 193 -151c152 0 228 53 228 158c0 24 -11 36 -32 36c-29 0 -73 4 -92 4c-32 0 -35 3 -38 32z" />
    <glyph glyph-name="h" unicode="h" horiz-adv-x="906" 
d="M368 570c-20 -1 -30 -28 -30 -80c0 -67 1 -153 3 -259s3 -170 3 -191s-2 -33 -6 -36s-17 -5 -38 -6c-16 -1 -40 -2 -72 -2c-47 0 -88 2 -124 6c-21 1 -32 21 -32 58c0 153 -2 375 -7 665s-7 500 -7 631c0 19 -2 54 -2 62c0 29 9 34 60 34c19 0 91 -2 110 -2
c44 0 70 -2 77 -6s11 -19 11 -44c0 -81 2 -177 7 -288s7 -194 7 -250c0 -27 3 -43 9 -49s21 -10 45 -11h44h94c27 0 43 5 49 14s9 29 9 60v2c0 25 0 60 -1 105s-1 80 -1 105c0 35 0 85 1 152s1 114 1 142c0 43 8 58 56 58c11 0 34 0 71 1s60 1 69 1c53 0 62 -8 62 -56
c0 -137 1 -355 4 -653s4 -520 4 -667v-2c0 -21 -2 -33 -6 -36s-17 -5 -40 -6c-27 0 -78 -4 -111 -5c-17 -1 -31 -1 -43 -1h-6c-42 0 -40 12 -40 56c-12 177 -18 315 -18 412v66c0 20 -18 30 -54 30c-56 0 -109 -3 -158 -10z" />
    <glyph glyph-name="i" unicode="i" horiz-adv-x="360" 
d="M240 1442c27 0 43 -4 50 -12s10 -28 10 -60c0 -144 -1 -363 -3 -656s-3 -511 -3 -654c3 -29 -5 -42 -9 -50c-1 -5 -18 -6 -22 -7s-30 -1 -41 -1s-35 -2 -46 -2h-68c-43 0 -50 21 -50 88c0 111 1 273 3 487s3 374 3 481c0 31 0 81 -1 152s-1 123 -1 156s3 54 8 62
s18 12 38 12c13 0 35 1 66 2s53 2 66 2z" />
    <glyph glyph-name="j" unicode="j" horiz-adv-x="778" 
d="M722 1372c0 -60 0 -153 -1 -278s-1 -219 -1 -282c0 -261 -14 -447 -42 -556c-49 -187 -149 -280 -300 -280c-55 0 -113 36 -174 108c-24 29 -44 59 -67 103c-11 22 -20 40 -26 53s-15 35 -28 64s-21 49 -25 58c-8 20 -12 34 -12 42c0 16 44 44 82 63c24 12 57 28 62 31
c11 7 21 10 32 10c20 0 35 -15 46 -44c3 -7 7 -21 14 -42s12 -37 17 -48s11 -23 18 -38c15 -29 32 -42 51 -42c25 0 46 13 61 40s24 57 27 92c4 60 6 151 6 274c0 49 -1 122 -2 219s-2 169 -2 217c0 25 -8 38 -24 38c-31 0 -77 -1 -138 -3s-107 -3 -138 -3
c-40 0 -58 2 -62 48c0 15 -1 44 -3 89s-3 76 -3 93c0 37 13 44 50 44h498c37 0 61 -4 70 -13s14 -28 14 -57z" />
    <glyph glyph-name="k" unicode="k" horiz-adv-x="884" 
d="M296 62c0 -29 -3 -47 -10 -54s-21 -10 -44 -10c-72 0 -119 2 -140 6c-37 5 -44 5 -48 42v150c0 45 1 113 4 204c9 227 14 425 14 594c0 67 -4 197 -12 392v28c0 35 3 37 46 42l142 12c33 0 54 -4 62 -12s12 -30 12 -66v-186c0 -25 0 -54 1 -86s1 -58 1 -78v-186
c13 0 99 186 258 558c16 37 26 48 58 48c17 0 69 -3 156 -10c35 -3 52 -11 52 -24c0 -1 -1 -5 -4 -10c-31 -57 -81 -164 -152 -320c-12 -27 -31 -68 -56 -123s-45 -100 -60 -135s-22 -57 -22 -68v-4c0 -88 93 -320 278 -696c4 -9 6 -17 6 -24c0 -19 -22 -28 -66 -28
c-13 0 -41 1 -84 2s-71 2 -84 2h-28c-21 0 -31 9 -50 54l-220 532c-7 -303 -10 -485 -10 -546z" />
    <glyph glyph-name="l" unicode="l" horiz-adv-x="606" 
d="M316 348c0 -3 0 -19 1 -22s2 -13 6 -16c8 -5 20 -10 41 -10c13 0 36 1 69 2s55 2 67 2c32 0 48 -14 48 -42c0 -21 1 -57 3 -106s3 -86 3 -110c0 -37 -3 -46 -48 -46c-149 -3 -262 -4 -338 -4h-40c-32 0 -51 2 -58 5s-10 11 -10 23c0 60 0 176 -1 347s-1 300 -1 387
c0 220 3 418 8 594c1 36 6 57 13 63s29 10 65 13c15 1 47 2 96 2h32c32 0 36 -3 36 -22v-460c0 -277 3 -477 8 -600z" />
    <glyph glyph-name="m" unicode="m" horiz-adv-x="1160" 
d="M590 370c-29 -56 -45 -54 -64 -6c-23 61 -59 145 -108 250s-78 168 -86 188c-11 -420 -16 -673 -16 -760c0 -28 -13 -42 -40 -42h-12c-25 3 -83 8 -174 16c-19 3 -40 4 -40 52v8c3 68 5 170 7 307s4 233 5 289c5 209 8 449 8 720c0 53 7 66 52 66c32 0 61 -2 88 -6
c36 -5 56 -13 68 -31c8 -12 8 -10 17 -29c5 -9 8 -15 9 -18c40 -73 91 -171 152 -294s105 -208 130 -256c11 0 47 77 108 232s102 261 122 320c13 43 27 54 56 54c16 0 83 -7 200 -20c30 -4 30 -16 30 -52v-14c0 -20 0 -50 1 -91s1 -71 1 -91c0 -117 -2 -294 -7 -531
s-7 -416 -7 -537c0 -32 -4 -36 -44 -36c-21 0 -74 2 -158 6c-37 1 -58 5 -62 12c-1 4 -2 10 -2 18v738c-101 -211 -179 -365 -234 -462z" />
    <glyph glyph-name="n" unicode="n" horiz-adv-x="880" 
d="M278 96c-3 -75 -15 -96 -74 -96h-110c-37 0 -42 5 -42 56c0 108 1 183 2 224c8 288 12 666 12 1134c4 34 1 30 30 34c36 4 74 6 114 6h70c20 0 32 -1 37 -4s10 -12 15 -28c63 -212 123 -417 182 -614l58 -186l4 202c0 21 3 103 9 246s9 245 9 308c0 36 15 54 46 54
c68 0 117 -1 148 -2c35 -3 42 -9 42 -30c0 -5 -2 -21 -2 -32c-5 -257 -8 -535 -8 -834c0 -44 0 -118 1 -223s1 -183 1 -235c0 -51 -11 -62 -64 -62c-40 0 -85 1 -136 4c-36 0 -55 2 -63 17c-7 12 -9 13 -17 37c-4 12 -7 22 -10 30c-36 100 -78 225 -125 376
s-84 262 -109 334l-4 -218c-1 -88 -4 -176 -8 -264s-7 -166 -8 -234z" />
    <glyph glyph-name="o" unicode="o" 
d="M1068 776c0 -264 -41 -463 -124 -597s-227 -201 -432 -201c-159 0 -278 64 -357 192s-119 299 -119 514c0 261 46 455 137 580s240 188 445 188c133 0 242 -66 325 -199s125 -292 125 -477zM838 696c0 88 -16 183 -49 282s-102 168 -187 168c-101 0 -181 -45 -238 -134
s-86 -195 -86 -316c0 -100 22 -194 67 -283s106 -133 185 -133c219 0 308 139 308 416z" />
    <glyph glyph-name="p" unicode="p" horiz-adv-x="732" 
d="M270 0h-20h-100c-31 0 -49 4 -55 12s-9 31 -9 70v22c0 12 -4 68 -4 80c0 216 -11 613 -34 1192v20c0 43 13 49 74 54c67 4 133 6 198 6c12 0 33 -1 63 -2s48 -2 53 -2c85 0 150 -38 193 -115s65 -170 65 -281c0 -123 -28 -223 -84 -302c-24 -33 -61 -70 -112 -110
s-95 -72 -134 -96l-56 -34c0 -88 5 -247 16 -476v-4c0 -27 -9 -34 -54 -34zM316 798c39 4 74 39 106 105s48 126 48 179c0 60 -9 100 -28 121s-47 31 -86 31c-45 0 -68 -9 -68 -26c0 -184 3 -317 10 -400c0 -9 6 -13 18 -10z" />
    <glyph glyph-name="q" unicode="q" horiz-adv-x="1228" 
d="M596 302c93 0 167 51 222 153s82 213 82 333c0 96 -30 186 -90 271s-129 127 -208 127c-87 0 -160 -41 -220 -122s-90 -175 -90 -282c0 -124 28 -235 85 -333s130 -147 219 -147zM476 14c-83 20 -158 66 -227 137s-121 154 -158 247s-55 185 -55 276
c0 240 54 432 163 575s255 215 439 215c141 0 265 -67 371 -200s159 -288 159 -464c0 -85 -11 -172 -32 -259s-53 -158 -96 -211l-56 -72c17 0 42 0 74 1s57 1 76 1c29 0 44 -16 44 -48v-140c0 -32 -4 -51 -11 -56s-27 -9 -59 -10c-132 -4 -293 -6 -484 -6
c-63 0 -112 5 -148 14z" />
    <glyph glyph-name="r" unicode="r" horiz-adv-x="834" 
d="M780 18c-17 0 -49 2 -96 6s-79 6 -98 6c-43 0 -59 15 -78 76l-146 488c-37 -4 -57 -7 -58 -8v-120v-392c1 -43 -3 -61 -50 -66c-36 0 -95 5 -176 14c-20 1 -30 23 -30 66c0 143 4 358 13 647s13 510 13 663c0 45 10 56 42 56c35 0 88 0 161 -1s127 -1 163 -1
c97 0 180 -35 248 -105s102 -169 102 -297c0 -131 -31 -241 -68 -301c-19 -30 -37 -55 -56 -74c-37 -39 -68 -54 -68 -57c0 -24 9 -45 22 -74l12 -20c20 -49 49 -127 86 -234s64 -180 80 -220c7 -17 10 -29 10 -34c0 -12 -9 -18 -28 -18zM300 1216v-154c0 -21 1 -65 3 -131
s3 -110 3 -133c0 -13 23 -20 70 -20c96 0 170 67 170 216c0 73 -16 133 -47 179s-69 69 -113 69c-57 0 -86 -9 -86 -26z" />
    <glyph glyph-name="s" unicode="s" horiz-adv-x="748" 
d="M550 1206h-100c-53 0 -84 -1 -117 -36c-17 -17 -25 -42 -25 -74c0 -47 21 -97 64 -150c21 -27 55 -62 100 -107s82 -83 111 -114s55 -73 80 -124s37 -106 37 -163c0 -124 -31 -233 -92 -328s-145 -142 -252 -142c-89 0 -180 49 -272 146c-17 17 -26 31 -26 42
c0 24 17 67 50 128c25 49 43 74 54 74c9 0 23 -7 40 -20c8 -5 33 -28 46 -37c7 -5 15 -10 26 -17c21 -13 41 -18 60 -18c64 0 120 45 120 128c0 24 -5 46 -16 69s-17 37 -36 60s-23 27 -44 50c-11 11 -17 18 -20 21c-12 13 -40 43 -84 90s-73 79 -86 96s-33 46 -58 85
c-51 79 -62 150 -62 243c0 103 37 188 112 256s164 102 268 102c31 0 66 -3 106 -10c37 -7 59 -14 66 -22s11 -25 14 -50c5 -39 8 -83 8 -134c0 -29 -24 -44 -72 -44z" />
    <glyph glyph-name="t" unicode="t" horiz-adv-x="822" 
d="M742 1156h-138h-14c-32 0 -35 -2 -38 -42c-4 -103 -6 -256 -6 -460c0 -67 0 -168 1 -304s1 -239 1 -308c0 -37 -3 -42 -38 -42h-60h-110c-35 0 -52 10 -52 30c0 21 0 146 1 375s1 412 1 549c0 12 -1 40 -2 84s-2 73 -2 86c0 16 -11 24 -32 24c-41 0 -96 2 -164 6h-6
c-21 3 -33 8 -36 16c-1 5 -2 15 -2 28v170c0 29 4 48 11 56s28 12 61 12c41 0 101 1 180 3s137 3 176 3c57 0 145 -1 262 -4c37 0 42 3 42 -28v-48c0 -20 0 -49 -1 -87s-1 -68 -1 -89c0 -24 -2 -30 -34 -30z" />
    <glyph glyph-name="u" unicode="u" horiz-adv-x="862" 
d="M560 1192v202c0 21 8 32 24 32c64 0 131 -1 200 -4c20 0 30 -5 30 -14c0 -53 -2 -126 -6 -219s-6 -165 -6 -217c0 -99 -1 -184 -4 -256s-8 -149 -17 -231s-22 -151 -40 -207s-41 -108 -68 -157s-63 -85 -106 -109s-94 -36 -151 -36c-96 0 -171 37 -222 90
s-87 150 -107 237c-10 43 -18 97 -24 160s-10 121 -11 174s-2 116 -2 189c0 163 6 364 18 604c8 17 15 27 20 28c85 0 151 -4 196 -12c27 -5 28 -6 28 -30c0 -92 -3 -205 -9 -338s-9 -239 -9 -318c0 -303 45 -454 134 -454c47 0 81 59 103 177s33 255 33 411
c0 47 -1 104 -2 172s-2 110 -2 126z" />
    <glyph glyph-name="v" unicode="v" horiz-adv-x="900" 
d="M830 1414c31 0 46 -7 46 -20c0 -3 -1 -13 -4 -32l-216 -1304c-9 -36 -27 -54 -54 -54c-97 0 -199 9 -304 28c-16 3 -24 14 -25 21s-3 29 -3 37c-80 548 -153 971 -218 1268c-4 20 -6 35 -6 44c0 16 16 24 48 24c15 0 45 0 90 1s76 1 92 1h10c17 0 17 1 22 -20
c49 -321 102 -655 158 -1002l154 960c4 39 1 54 38 54h4c100 -4 156 -6 168 -6z" />
    <glyph glyph-name="w" unicode="w" horiz-adv-x="1380" 
d="M642 1294h58c33 0 53 -11 60 -32c16 -48 52 -146 108 -294s93 -253 110 -314l112 746c0 3 2 18 3 19s2 13 5 14c5 2 14 7 26 7c104 4 169 6 196 6c16 0 24 -4 24 -12c0 -20 -2 -41 -6 -62c-116 -824 -177 -1260 -182 -1308c-3 -35 4 -54 -38 -58c-39 -4 -89 -6 -152 -6
c-37 -1 -32 21 -40 44c-17 52 -51 160 -101 325s-90 292 -121 381c-52 -208 -113 -426 -182 -654c-7 -23 -15 -37 -25 -42s-30 -8 -59 -8c-21 0 -34 4 -58 4c-23 0 -38 14 -46 42c-28 95 -55 198 -82 311s-48 208 -65 286s-40 189 -70 334s-53 254 -69 329
c-3 13 -14 44 -14 52c0 12 12 19 36 20c96 3 156 4 180 4c37 0 45 -8 58 -56c20 -77 44 -199 73 -365s52 -288 71 -365c93 369 146 575 158 618c0 3 1 6 2 10c3 17 5 24 30 24z" />
    <glyph glyph-name="x" unicode="x" horiz-adv-x="876" 
d="M834 0c-13 0 -67 -2 -82 -2c-11 0 -31 0 -61 1s-52 1 -65 1c-32 0 -48 5 -51 15c-1 4 -10 30 -13 41l-114 378c-12 -29 -59 -165 -140 -408c-9 -28 -20 -42 -32 -42c-35 0 -87 3 -157 8s-105 13 -105 22c0 7 5 22 16 46c56 136 112 277 167 424s83 230 83 250
c-111 327 -195 547 -254 660c-7 16 -10 25 -10 28c0 8 13 12 38 12c19 0 50 -1 93 -3s73 -3 89 -3c28 0 38 -2 43 -8c3 -5 7 -15 13 -28l164 -430l138 440c12 36 9 50 44 48c84 0 151 -4 200 -12c17 -1 26 -11 26 -28c0 -19 -10 -45 -30 -78c-24 -44 -54 -113 -90 -207
s-66 -178 -91 -252s-37 -114 -37 -121c0 -29 29 -126 86 -291s108 -296 152 -393c12 -24 18 -40 18 -48c0 -13 -13 -20 -38 -20z" />
    <glyph glyph-name="y" unicode="y" horiz-adv-x="788" 
d="M520 312c0 -27 0 -74 1 -142s1 -118 1 -150c0 -16 0 -18 -16 -18h-6c-40 -3 -74 -4 -102 -4c-43 0 -72 2 -104 2h-2c-9 0 -15 3 -17 10s-3 29 -3 68v6v478c0 60 -17 140 -50 240c-111 323 -175 509 -194 560c-7 17 -10 30 -10 38c0 13 16 20 48 20h58c19 0 44 0 75 -1
s55 -1 71 -1c11 0 19 -9 24 -26l104 -470c19 51 43 133 73 246s49 183 57 208c7 19 19 28 38 28h166c32 0 48 -4 48 -12c0 -4 -3 -16 -10 -36c-60 -188 -98 -303 -114 -344c-33 -83 -64 -177 -92 -284s-42 -181 -42 -222c0 -91 -2 -149 -2 -194z" />
    <glyph glyph-name="z" unicode="z" horiz-adv-x="744" 
d="M92 1406c51 1 139 5 264 10s226 8 302 8c27 0 34 -5 34 -26c0 -9 1 -35 2 -77s2 -75 2 -99c0 -40 -3 -71 -8 -92c-19 -59 -59 -151 -121 -278s-119 -241 -170 -343s-77 -160 -77 -173c0 -24 25 -36 74 -36c13 0 48 1 104 3s93 3 112 3h38c29 0 42 -8 42 -48
c0 -17 -1 -42 -2 -75s-2 -61 -2 -85c0 -64 -11 -84 -46 -84c-217 0 -393 1 -528 4c-25 1 -41 6 -47 13s-10 24 -11 49v14c-1 17 -2 44 -2 80c0 31 3 107 10 230c1 20 9 42 24 66c35 65 90 175 166 328s121 245 134 276c4 9 6 17 6 24c0 28 -21 42 -64 42
c-21 0 -60 -1 -115 -3s-96 -3 -123 -3c-17 0 -27 5 -28 14c-1 1 -2 5 -2 10v8c-7 69 -10 131 -10 186v28c0 17 14 26 42 26z" />
    <glyph glyph-name="braceleft" unicode="{" horiz-adv-x="560" 
d="M470 1492c19 0 21 -5 24 -34c3 -56 4 -97 4 -122c-1 -44 -3 -38 -32 -44c-65 -13 -98 -56 -98 -128c0 -37 3 -91 9 -162s9 -122 9 -154c0 -47 -13 -86 -38 -118c-21 -25 -32 -42 -32 -50c0 -3 10 -19 30 -48c12 -20 18 -55 18 -106v-34c0 -39 1 -71 3 -96s7 -56 14 -93
c15 -73 56 -119 117 -135c8 -3 13 -7 14 -12s2 -19 2 -42c0 -41 -2 -83 -6 -126c-3 -29 -9 -34 -30 -34c-67 0 -126 15 -178 45s-87 71 -104 123c-16 45 -24 102 -24 170c0 15 0 40 1 75s1 62 1 79c0 55 -5 97 -16 128c-13 40 -34 55 -50 63c-8 4 -31 11 -34 11
c-17 7 -26 20 -26 40v30c0 27 21 33 46 48c75 44 112 123 112 238c0 31 -1 76 -4 136s-4 104 -4 132c0 91 22 150 65 178s112 42 207 42z" />
    <glyph glyph-name="bar" unicode="|" horiz-adv-x="296" 
d="M248 -50c0 -35 -11 -52 -32 -52c-40 0 -77 2 -112 6c-45 5 -52 21 -52 64c0 215 1 486 4 815s4 558 4 689c0 48 7 53 42 58c51 5 81 8 92 8c32 0 48 -17 48 -50v-6c0 -209 1 -467 3 -772s3 -559 3 -760z" />
    <glyph glyph-name="braceright" unicode="}" horiz-adv-x="558" 
d="M90 1492c95 0 164 -14 207 -42s65 -87 65 -178c0 -28 -1 -70 -4 -126s-4 -99 -4 -130c0 -123 37 -206 112 -250c13 -8 31 -17 38 -23c8 -7 10 -14 10 -25c0 -5 -2 -19 -2 -30c0 -20 -9 -33 -26 -40c-3 0 -26 -7 -34 -11c-4 -2 -10 -5 -17 -10c-15 -9 -25 -29 -33 -53
c-11 -31 -16 -73 -16 -128c0 -17 0 -44 1 -79s1 -60 1 -75c0 -68 -8 -125 -24 -170c-17 -52 -52 -93 -104 -123s-111 -45 -178 -45c-21 0 -27 5 -30 34c-3 28 -4 70 -4 126c0 51 -1 51 10 54h4c61 16 102 62 117 135c7 37 12 68 14 93s3 57 3 96v34c0 51 6 86 18 106
c20 29 30 45 30 48c0 8 -11 25 -32 50c-25 32 -38 71 -38 118c0 32 3 83 9 154s9 125 9 162c0 72 -33 115 -98 128c-3 0 -6 1 -10 2c-19 3 -22 5 -22 42c0 25 1 66 4 122c3 29 5 34 24 34z" />
    <glyph glyph-name="asciitilde" unicode="~" horiz-adv-x="738" 
d="M136 1284h-26h-36c-11 3 -16 11 -16 26c0 192 60 278 220 278c32 0 59 -13 81 -38s43 -50 63 -75s42 -37 66 -37c47 0 81 30 104 90c4 11 8 16 12 16c12 0 28 -4 48 -12s30 -15 30 -20c0 -23 -1 -39 -4 -50c-12 -53 -36 -100 -72 -139s-75 -59 -116 -59
c-101 -5 -176 140 -214 134c-39 1 -71 -7 -100 -82c-7 -21 -20 -32 -40 -32z" />
    <glyph glyph-name="exclamdown" unicode="&#xa1;" horiz-adv-x="348" 
d="M52 1402v8c0 40 11 47 46 50c16 1 57 2 124 2c31 0 49 -3 54 -8s9 -22 10 -50c4 -132 6 -261 6 -386c0 -47 0 -117 -1 -210s-1 -163 -1 -208c0 -77 -2 -158 -6 -242c0 -24 -1 -38 -4 -44c-2 -5 -13 -7 -32 -6c-29 0 -79 1 -148 4c-21 0 -32 15 -32 44
c0 379 -5 727 -16 1046zM276 168c0 -21 -1 -50 -3 -86s-3 -64 -3 -84c-1 -17 -3 -27 -5 -29s-12 -4 -29 -5c-59 -3 -100 -4 -124 -4c-40 0 -46 1 -46 44c0 16 0 39 -1 70s-1 50 -1 58v16c0 29 3 31 38 34c83 7 133 10 152 10s22 -3 22 -24z" />
    <glyph glyph-name="cent" unicode="&#xa2;" horiz-adv-x="808" 
d="M478 1328v-110c61 0 124 -33 188 -100s96 -133 96 -200c0 -8 -9 -12 -28 -12c-92 -4 -139 -6 -140 -6c-29 0 -24 6 -40 30c-3 5 -15 25 -19 30c-2 3 -5 7 -9 13c-8 12 -13 15 -24 23c-19 14 -46 22 -86 22c-39 0 -73 -28 -103 -85s-45 -124 -45 -201
c0 -176 61 -270 162 -270c59 0 119 35 140 94c7 21 0 34 32 34c61 3 107 4 138 4c13 0 20 -5 20 -16c0 -48 -11 -97 -34 -146s-48 -85 -76 -106c-52 -39 -105 -64 -158 -76l-34 -6c0 -15 0 -37 1 -68s1 -53 1 -66c0 -16 -4 -16 -28 -16c-8 0 -21 0 -40 -1s-31 -1 -36 -1
c-12 0 -18 7 -18 20c0 12 0 36 1 72s1 57 1 64c-69 0 -135 46 -197 139s-93 208 -93 345c0 115 31 220 93 317s130 152 205 165c-1 24 -2 51 -2 80v4c0 36 8 54 24 54c15 0 72 -2 90 -2c12 0 18 -7 18 -22z" />
    <glyph glyph-name="sterling" unicode="&#xa3;" horiz-adv-x="812" 
d="M162 726c0 16 0 43 -1 80s-1 61 -1 72c0 393 105 590 314 590c95 0 166 -42 215 -125s76 -192 83 -325c0 -29 -1 -31 -30 -36c-16 -4 -41 -6 -76 -6s-61 1 -78 4c-27 3 -27 7 -30 36c0 8 -4 39 -5 50c-1 5 -2 14 -4 25c-4 23 -6 29 -11 46c-9 30 -31 47 -62 47
c-32 0 -57 -16 -74 -48s-27 -67 -28 -104c-1 -61 -2 -132 -2 -212v-2l4 -80c41 -1 68 -2 80 -2c8 0 25 0 50 1s49 1 70 1s24 -3 24 -22v-140v-6c0 -36 -2 -32 -46 -32c-19 -1 -43 -3 -73 -5s-50 -3 -61 -3c-16 -1 -24 -7 -24 -16c0 -13 2 -86 6 -218c0 -43 9 -46 46 -46h24
c12 0 48 1 108 3s104 3 132 3c21 0 23 -3 28 -32c15 -100 22 -166 22 -198c0 -19 -14 -28 -42 -28c-229 0 -409 5 -538 16c-27 1 -40 17 -40 46v416c0 8 2 23 2 26c0 7 -10 10 -30 10h-24c-48 0 -58 6 -58 30c1 11 3 32 5 63s4 56 5 73c3 29 9 34 30 34h26c3 0 15 2 28 2
c23 5 35 9 36 12z" />
    <glyph glyph-name="currency" unicode="&#xa4;" horiz-adv-x="1054" 
d="M774 134c-35 0 -41 9 -54 36c-44 85 -68 131 -72 138l-30 42c-48 -20 -86 -30 -114 -30c0 0 -35 7 -104 20c-17 -36 -33 -64 -46 -84c-12 -17 -24 -40 -37 -69s-22 -48 -27 -57c-7 -12 -16 -18 -28 -18h-52c-39 0 -65 1 -80 2c-19 3 -28 6 -28 10c0 0 5 11 16 32
c45 89 70 138 74 146l48 108c-33 36 -59 67 -78 94s-36 62 -51 106s-23 92 -23 144c0 64 17 127 50 188s61 103 82 124c-73 115 -123 191 -148 228c-16 23 -24 41 -24 54c0 11 8 16 24 16c15 0 42 1 81 4s68 4 85 4c29 0 35 -5 54 -34c8 -15 22 -46 43 -94s34 -78 41 -90
c5 1 25 6 59 15s57 13 69 13c48 0 90 -10 113 -18c11 -4 34 -13 67 -28c9 12 29 46 60 101s50 89 58 101c13 21 27 33 40 36c7 1 15 2 26 2c24 0 53 -8 86 -25s50 -34 50 -51c0 -5 -2 -11 -6 -18l-188 -270c45 -89 68 -191 68 -306c0 -99 -28 -180 -84 -244
c-13 -13 -15 -27 6 -56c39 -57 81 -135 126 -232c1 -3 2 -7 2 -14c0 -17 -51 -26 -154 -26zM682 758c0 63 -17 117 -50 162s-76 68 -128 68c-53 0 -99 -25 -137 -74s-57 -105 -57 -168c0 -61 23 -113 70 -155s93 -63 138 -63c49 0 89 23 119 70s45 100 45 160z" />
    <glyph glyph-name="yen" unicode="&#xa5;" horiz-adv-x="948" 
d="M328 280h-152h-16c-12 0 -18 7 -18 20v80c0 19 2 20 18 20h172c1 24 2 61 2 110c0 4 -1 9 -2 16h-112h-62c-16 0 -16 1 -16 12c0 18 -2 73 -2 88c0 19 2 22 18 22c15 0 38 0 70 -1s55 -1 70 -1c-88 309 -167 549 -238 718c-8 20 -12 34 -12 42c0 12 11 18 32 18
c11 0 54 -2 78 -2h112c32 0 45 -2 55 -11c4 -1 9 -18 10 -22s6 -31 9 -39c16 -68 65 -231 148 -488l48 174c31 116 51 205 62 266c4 24 8 44 12 60c3 8 6 29 7 33c1 2 2 6 3 11c3 11 5 10 8 17c8 12 24 14 58 17c88 5 150 8 186 8c32 0 27 -20 16 -52
c-105 -307 -184 -556 -236 -748c15 0 36 0 65 1s49 1 61 1h10c5 0 8 -5 8 -14v-86c-4 -16 -8 -24 -12 -24h-162c-12 -52 -18 -91 -18 -116v-8c21 0 52 0 91 1s68 1 85 1c12 0 18 -5 18 -14v-16v-70c0 -16 -5 -24 -14 -24h-180c0 -16 0 -47 1 -94s1 -86 1 -118s-3 -51 -8 -58
s-20 -10 -44 -10h-74h-94c-61 0 -70 6 -70 46c0 52 3 130 8 234z" />
    <glyph glyph-name="brokenbar" unicode="&#xa6;" horiz-adv-x="364" 
d="M228 822c-13 0 -33 -1 -60 -2s-47 -2 -62 -2c-37 0 -44 11 -44 62c0 55 -1 142 -2 261s-2 207 -2 263c0 35 8 44 56 44h122h26c29 0 32 -3 32 -24c0 -72 1 -171 4 -298s4 -215 4 -266v-2c0 -32 -5 -38 -26 -38c-8 0 -37 2 -48 2zM58 48c0 47 0 126 1 239s1 193 1 241
c0 25 4 41 11 47s28 9 63 9c39 0 75 -2 108 -6s53 -9 59 -14s9 -23 9 -52c0 -48 0 -127 1 -236s1 -187 1 -232c0 -40 1 -42 -18 -42c-20 0 -51 0 -94 -1s-74 -1 -94 -1c-43 0 -48 5 -48 48z" />
    <glyph glyph-name="section" unicode="&#xa7;" horiz-adv-x="610" 
d="M458 1270h-60h-12c-67 0 -100 -26 -100 -78c0 -31 15 -65 46 -104c12 -15 42 -45 90 -91s83 -89 106 -128s34 -85 34 -137c0 -61 -11 -119 -33 -173s-54 -95 -95 -123c47 -60 70 -123 70 -188c0 -87 -21 -163 -64 -229s-101 -99 -176 -99c-61 0 -125 34 -190 102
c-13 13 -20 23 -20 30c0 5 4 16 12 32c5 11 19 47 24 58c17 33 30 50 38 50s17 -5 28 -14c44 -33 75 -50 92 -50c45 0 84 31 84 90c0 35 -18 67 -50 104c-16 19 -26 31 -30 36c-16 23 -38 50 -66 82s-51 59 -68 80c-35 43 -70 118 -70 198c0 109 69 199 170 234
c-25 28 -45 51 -58 70s-26 44 -38 76s-18 66 -18 102c0 72 26 132 79 180s116 72 189 72c17 0 42 -3 74 -8c23 -3 37 -6 43 -11s10 -18 13 -39c4 -31 6 -62 6 -94c0 -20 -17 -30 -50 -30zM256 628c17 -11 34 -16 50 -16c45 0 84 31 84 90c0 27 -12 55 -36 84h-14h-10
c-37 0 -58 0 -82 -24c-12 -12 -18 -29 -18 -52c0 -29 9 -57 26 -82z" />
    <glyph glyph-name="dieresis" unicode="&#xa8;" horiz-adv-x="602" 
d="M160 1412c-75 0 -102 32 -102 120c0 59 46 106 102 106c24 0 46 -11 66 -32s30 -45 30 -72c0 -69 -45 -122 -96 -122zM544 1528c0 -80 -37 -110 -120 -110c-45 0 -90 45 -90 120c0 21 10 41 30 59s41 27 64 27c61 0 116 -37 116 -96z" />
    <glyph glyph-name="copyright" unicode="&#xa9;" horiz-adv-x="1238" 
d="M622 198c117 0 213 53 286 160s110 237 110 390c0 312 -125 468 -376 468c-123 0 -222 -46 -298 -137s-114 -215 -114 -371c0 -145 35 -267 105 -364s166 -146 287 -146zM654 1452c121 0 223 -34 306 -103s142 -154 177 -256s53 -216 53 -341c0 -240 -52 -425 -156 -556
s-239 -196 -406 -196c-179 0 -320 63 -424 189s-156 310 -156 553c0 189 54 355 135 463c41 54 87 100 140 138c105 76 219 109 331 109zM868 526c-24 -67 -51 -114 -82 -141s-83 -41 -156 -41c-91 0 -159 34 -206 103s-70 158 -70 269c0 100 26 185 78 256s122 106 210 106
c129 0 207 -68 232 -204v-6c0 -11 -9 -17 -26 -18h-12c-24 -3 -47 -4 -68 -4c-13 0 -25 9 -34 26c-20 40 -47 60 -82 60c-41 0 -79 -22 -114 -66s-52 -94 -52 -150c0 -65 14 -121 43 -167s66 -69 113 -69c27 0 68 19 84 48c9 19 5 53 42 48c64 5 108 11 108 -16
c0 -11 -3 -22 -8 -34z" />
    <glyph glyph-name="ordfeminine" unicode="&#xaa;" horiz-adv-x="680" 
d="M338 1292c-40 0 -70 -17 -91 -51s-31 -74 -31 -121c0 -39 14 -70 43 -93s59 -35 91 -35c56 0 102 30 102 54l-4 202c-5 9 -21 19 -47 29s-47 15 -63 15zM628 1416c0 -49 2 -136 6 -260s6 -217 6 -278c0 -17 -15 -26 -46 -26c-19 0 -61 -4 -98 -4c-14 -7 -29 65 -34 70
c-4 -3 -15 -13 -34 -30s-36 -30 -52 -38s-35 -12 -58 -12c-81 0 -147 27 -197 81s-75 125 -75 213c0 93 23 170 69 230s115 90 207 90c56 0 97 -23 108 -34c5 -5 17 -19 36 -42c4 51 14 76 30 76c1 0 12 1 33 3s35 3 43 3c37 0 56 -14 56 -42z" />
    <glyph glyph-name="guillemotleft" unicode="&#xab;" horiz-adv-x="738" 
d="M388 578c0 45 1 103 5 162c2 29 3 50 3 62c1 17 9 29 22 36c19 11 43 25 72 42s56 33 80 47s47 27 70 39c15 5 25 14 32 14c8 0 12 -8 12 -24c0 -45 -1 -85 -4 -120c-1 -25 -6 -41 -14 -48c-4 -4 -11 -9 -22 -16c-87 -52 -130 -85 -130 -98c37 -36 72 -67 104 -92
c31 -26 49 -22 48 -72v-128c0 -31 -3 -46 -8 -46c-1 0 -11 6 -28 18c-85 59 -157 117 -214 174c-19 19 -28 35 -28 50zM56 578c0 45 1 103 5 162c2 29 3 50 3 62c1 17 9 29 22 36c19 11 43 25 72 42s56 33 80 47s47 27 70 39c15 5 25 14 32 14s10 -8 10 -24
c0 -63 -1 -103 -2 -120c-1 -25 -6 -41 -14 -48c-4 -4 -11 -9 -22 -16c-88 -53 -132 -86 -132 -98c39 -36 74 -67 106 -92c31 -26 48 -22 46 -72v-128c0 -31 -3 -46 -8 -46c-1 0 -11 6 -28 18c-85 59 -157 117 -214 174c-17 17 -26 34 -26 50z" />
    <glyph glyph-name="logicalnot" unicode="&#xac;" horiz-adv-x="702" 
d="M644 650v-6c0 -27 -23 -19 -76 -22c-27 -1 -45 -2 -56 -2c-19 0 -20 3 -20 22v12c-3 69 -7 119 -12 150c-6 34 1 42 -38 42c-37 0 -92 -1 -165 -3s-128 -3 -167 -3c-43 0 -50 4 -50 52v96c0 37 12 40 40 40c52 0 135 2 249 6s192 6 233 6c21 0 26 -5 29 -12
c1 -3 3 -23 3 -28c3 -20 13 -137 30 -350z" />
    <glyph glyph-name="registered" unicode="&#xae;" horiz-adv-x="1238" 
d="M622 200c117 0 212 53 285 158s109 235 109 390c0 304 -123 476 -374 476c-123 0 -221 -47 -296 -141s-112 -219 -112 -375c0 -145 34 -266 103 -363s164 -145 285 -145zM654 1452c121 0 223 -34 306 -103s142 -154 177 -256s53 -216 53 -341c0 -240 -52 -425 -156 -556
s-239 -196 -406 -196c-179 0 -320 63 -424 189s-156 310 -156 553c0 189 54 355 135 463c41 54 87 100 140 138c105 76 219 109 331 109zM582 966v-78c0 -11 1 -32 2 -65s2 -55 2 -67c0 -7 11 -10 34 -10c48 0 86 33 86 108s-37 124 -80 124c-29 0 -44 -4 -44 -12zM840 374
c0 -11 -16 -9 -64 -5c-24 2 -41 3 -50 3c-20 0 -33 13 -40 38l-72 244c-19 -1 -29 -3 -30 -4v-60v-196c0 -21 0 -32 -24 -32c-14 0 -76 6 -88 6c-11 0 -16 11 -16 34c0 71 2 177 7 319s7 252 7 329c0 30 10 26 38 26c13 0 37 1 71 4s58 4 73 4c49 0 91 -18 125 -53
s51 -85 51 -149c0 -175 -96 -209 -96 -216c0 -5 5 -21 16 -48c28 -67 57 -142 88 -226c3 -5 4 -11 4 -18z" />
    <glyph glyph-name="overscore" unicode="&#xaf;" horiz-adv-x="486" 
d="M402 1618c16 0 24 -17 24 -50v-78c0 -24 -3 -39 -9 -44s-23 -8 -51 -8h-258c-23 0 -36 2 -41 7s-7 19 -7 43v92c0 24 8 36 24 36c32 0 86 0 161 1s128 1 157 1z" />
    <glyph glyph-name="degree" unicode="&#xb0;" horiz-adv-x="574" 
d="M518 1404c0 -67 -23 -123 -68 -170s-102 -70 -170 -70c-60 0 -113 21 -158 62s-68 93 -68 154c0 68 19 126 56 174s90 72 158 72c155 0 250 -75 250 -222zM278 1308c53 0 98 38 98 94c0 53 -46 86 -94 86c-51 0 -92 -39 -92 -92s37 -88 88 -88z" />
    <glyph glyph-name="plusminus" unicode="&#xb1;" horiz-adv-x="708" 
d="M532 308c-27 0 -98 0 -215 1s-188 1 -213 1c-42 0 -46 2 -46 34v18c0 15 0 37 -1 67s-1 52 -1 65c0 27 3 30 40 30h64c43 0 122 1 239 4s193 4 229 4c19 0 28 -13 28 -38c0 -7 0 -28 -1 -65s-1 -60 -1 -69c0 -30 -2 -45 -13 -47c-9 -1 -7 -3 -23 -3h-18
c-13 0 -49 -2 -68 -2zM96 1022h144v154c0 42 2 46 34 46h18c15 0 37 0 67 1s52 1 65 1c27 0 30 -5 30 -42v-64c0 -13 2 -72 2 -92c45 1 103 2 172 2c19 0 28 -12 28 -36c0 -7 0 -29 -1 -66s-1 -61 -1 -70c0 -30 -2 -45 -13 -47c-9 -1 -7 -3 -23 -3h-18c-13 0 -49 -2 -68 -2
h-72c1 -40 2 -91 2 -154c0 -17 -13 -26 -38 -26c-7 0 -28 0 -65 1s-60 1 -69 1c-30 0 -45 2 -47 13c-1 9 -3 7 -3 23v18c0 13 -2 47 -2 66v60h-134c-43 0 -46 4 -46 36v18c0 15 0 37 -1 66s-1 51 -1 64c0 29 5 32 40 32z" />
    <glyph glyph-name="uni00B2" unicode="&#xb2;" horiz-adv-x="478" 
d="M292 700h-200c-23 0 -34 5 -34 16c0 23 2 50 6 82c4 29 14 53 30 70c7 7 23 23 49 48s46 46 59 61s29 36 47 62c36 52 53 104 53 163c0 61 -25 104 -62 104s-56 -46 -56 -86v-16c0 -17 -4 -20 -30 -20c-3 0 -13 -1 -31 -3s-32 -3 -43 -3c-13 0 -21 9 -22 26
c-1 3 -2 5 -2 8c-1 12 -2 31 -2 58c0 45 19 83 57 112s81 44 129 44c52 0 96 -18 131 -54s53 -83 53 -140c0 -77 -15 -144 -46 -201s-77 -118 -138 -183h24c10 0 59 2 66 2c5 0 19 -2 22 -2c29 -3 27 -5 32 -34c5 -40 8 -72 8 -96c0 -16 -5 -18 -24 -18h-8h-68z" />
    <glyph glyph-name="uni00B3" unicode="&#xb3;" horiz-adv-x="460" 
d="M192 1326c-28 0 -101 -10 -126 -10c-13 0 -14 1 -14 28v74c0 15 5 22 14 22c1 1 4 2 8 2h8c57 7 103 10 136 10c113 0 170 -57 170 -170c0 -64 -24 -130 -41 -155c-9 -13 -15 -21 -19 -25c11 -8 36 -30 61 -78c13 -24 19 -48 19 -72c0 -89 -25 -150 -74 -181
s-129 -50 -238 -55h-18c-19 0 -19 2 -24 26c-1 7 -2 17 -2 32v22v10c0 13 3 21 10 22c3 1 7 2 14 2c13 0 23 1 30 2c2 0 48 6 52 7s12 2 24 4c24 4 28 7 45 15c28 15 44 38 45 80c0 31 -13 56 -40 77s-57 31 -92 31c-19 0 -22 2 -22 18v6l-6 60c0 7 7 11 22 12
c33 3 65 12 95 28s45 41 45 76c0 53 -27 80 -82 80z" />
    <glyph glyph-name="acute" unicode="&#xb4;" horiz-adv-x="452" 
d="M236 1364h-4c-117 0 -176 3 -176 10c0 4 3 11 8 20c12 23 30 58 55 105s42 81 53 101c13 22 8 38 42 36c24 0 61 -2 112 -6s76 -9 76 -14l-14 -24c-56 -88 -98 -155 -126 -200c-16 -24 -14 -28 -26 -28z" />
    <glyph glyph-name="mu" unicode="&#xb5;" horiz-adv-x="872" 
d="M296 1412v-110c0 -69 -1 -183 -3 -341s-3 -270 -3 -335c0 -75 1 -110 18 -181c16 -68 58 -107 122 -107c43 0 71 24 83 72s17 84 17 148c4 100 6 198 6 294c0 79 -1 185 -4 319s-4 212 -4 233c0 33 5 51 16 52c60 7 108 10 144 10c27 0 25 -2 28 -34
c12 -193 18 -510 18 -950c0 -80 -9 -129 -26 -146c33 -32 61 -58 84 -78c19 -17 29 -30 32 -38c1 -7 2 -19 2 -38c0 -23 -4 -80 -4 -96c0 -17 -1 -51 -4 -102c0 -16 -17 -13 -28 -8c-48 21 -99 53 -126 73c-13 10 -28 22 -44 35s-26 21 -30 24c-57 -63 -113 -94 -166 -94
c-27 0 -76 13 -148 38v-100c0 -107 -1 -196 -4 -268c-3 -37 -5 -42 -32 -42c-5 0 -22 2 -30 2c-47 0 -86 3 -118 8c-35 5 -44 18 -44 58v30c12 179 18 396 18 652c0 91 -1 226 -2 405s-2 312 -2 397c0 76 1 133 2 170c0 16 2 46 2 53s3 24 8 27c12 6 23 10 60 14
c51 5 91 8 120 8c37 0 42 -9 42 -54z" />
    <glyph glyph-name="paragraph" unicode="&#xb6;" horiz-adv-x="1196" 
d="M864 1150c-5 0 -17 1 -36 2s-31 2 -36 2c-31 0 -30 -10 -30 -66c-4 -85 -10 -198 -18 -338s-15 -266 -20 -379s-8 -222 -8 -327c0 -37 -12 -44 -52 -44h-142c-43 3 -52 7 -52 36c0 56 2 127 6 214s6 153 6 198c0 47 -26 77 -78 90c-93 25 -176 85 -248 179
s-108 198 -108 313c0 144 36 241 92 301c28 30 69 54 123 72s109 31 166 38s131 13 223 17c48 3 121 4 218 4c69 0 139 -3 208 -10c28 -3 45 -5 50 -8s8 -9 8 -20v-50c0 -151 -1 -367 -2 -648s-2 -491 -2 -630c0 -75 -10 -96 -58 -96c-31 0 -74 3 -130 8
c-43 3 -52 13 -52 42c0 115 2 304 6 567s6 430 6 499c0 23 -13 34 -40 34z" />
    <glyph glyph-name="middot" unicode="&#xb7;" horiz-adv-x="366" 
d="M106 878c96 7 153 10 172 10c16 0 24 -11 24 -32c3 -69 4 -121 4 -156c0 -37 -7 -40 -30 -40h-6h-14c-36 -3 -86 -4 -150 -4c-39 0 -40 8 -40 40v10c-3 80 -4 125 -4 134c0 27 7 35 44 38z" />
    <glyph glyph-name="cedilla" unicode="&#xb8;" horiz-adv-x="490" 
d="M326 34c40 0 34 -19 19 -56c-7 -19 -11 -35 -11 -50c0 -5 10 -17 30 -34c16 -15 30 -36 43 -65s19 -55 19 -79c0 -147 -78 -198 -214 -198c-27 0 -55 1 -84 4c-30 0 -40 -3 -40 18v2c0 67 6 100 18 100h28c16 0 51 -2 62 -2c43 0 64 31 64 94c0 41 -29 73 -86 94
c-17 7 -26 13 -26 20c0 1 2 9 5 23s6 23 7 27c9 44 15 71 18 80c5 24 6 26 22 26c44 0 86 -1 126 -4z" />
    <glyph glyph-name="uni00B9" unicode="&#xb9;" horiz-adv-x="380" 
d="M204 756v522c-12 -13 -34 -84 -62 -78h-14c-22 0 -78 1 -78 16l14 24c13 20 43 70 90 150c3 4 5 9 8 14c3 7 7 10 12 10c29 0 67 -1 112 -4c35 -3 30 -5 30 -24c0 -71 1 -178 4 -322s4 -251 4 -320c0 -16 -3 -18 -22 -18h-6c-5 0 -17 0 -35 -1s-29 -1 -33 -1
c-19 0 -24 5 -24 32z" />
    <glyph glyph-name="ordmasculine" unicode="&#xba;" horiz-adv-x="600" 
d="M372 1238c0 48 -30 76 -70 76c-48 0 -84 -36 -84 -84s23 -72 68 -72c57 7 86 33 86 80zM270 1460c157 0 248 -77 248 -224c0 -63 -23 -116 -68 -161s-103 -67 -172 -67c-63 0 -115 19 -158 58s-64 88 -64 148c0 68 19 126 56 174s90 72 158 72zM522 886
c16 0 20 -5 20 -34v-118c0 -30 -2 -45 -13 -47c-9 -1 -7 -3 -23 -3h-18c-53 -3 -94 -4 -122 -4s-71 1 -129 2s-102 2 -133 2c-35 0 -42 6 -42 30c0 13 0 33 1 60s1 46 1 58c0 45 0 50 32 50c56 0 129 1 220 2s159 2 206 2z" />
    <glyph glyph-name="guillemotright" unicode="&#xbb;" horiz-adv-x="738" 
d="M350 580c0 -15 -9 -31 -28 -50c-61 -61 -132 -119 -212 -174c-17 -12 -27 -18 -30 -18c-5 0 -8 15 -8 46c0 15 0 36 1 64s1 50 1 66c0 24 5 39 10 44s25 18 36 26l106 92c0 12 -44 45 -132 98c-17 11 -27 19 -30 24s-5 19 -6 40c-1 17 -2 57 -2 120c0 16 3 24 10 24
s18 -9 32 -14c45 -24 91 -51 150 -86c29 -17 53 -31 72 -42c13 -7 21 -19 22 -36c0 -12 1 -33 3 -62s3 -58 4 -86s1 -53 1 -76zM684 580c0 -15 -9 -31 -28 -50c-57 -57 -129 -115 -214 -174c-17 -12 -27 -18 -28 -18c-5 0 -8 15 -8 46v130c0 24 7 39 12 44s25 18 36 26
l104 92c0 13 -43 46 -130 98c-17 11 -27 19 -30 24s-5 19 -6 40c-3 35 -4 75 -4 120c0 16 4 24 12 24c7 0 18 -9 32 -14c45 -24 91 -51 150 -86c29 -17 53 -31 72 -42c13 -7 21 -19 22 -36c0 -12 1 -33 3 -62s3 -58 4 -86s1 -53 1 -76z" />
    <glyph glyph-name="onequarter" unicode="&#xbc;" horiz-adv-x="1014" 
d="M46 1216c0 0 5 8 14 24c13 20 43 70 90 150c3 4 5 9 8 14c3 7 7 10 12 10c44 0 89 -1 134 -4c37 -3 32 -5 32 -24c0 -71 1 -178 3 -322s3 -251 3 -320c0 -19 -1 -18 -20 -18h-6c-5 0 -21 0 -47 -1s-41 -1 -45 -1c-19 0 -24 5 -24 32v522c-12 -13 -34 -84 -62 -78
c-61 0 -92 5 -92 16zM724 1452h28c32 0 48 -5 48 -16c0 -3 -1 -9 -4 -20c-57 -208 -131 -452 -221 -733s-158 -502 -205 -665c-3 -11 -13 -17 -32 -18c-29 -3 -61 -12 -106 -12c-28 0 -42 5 -42 16c0 4 3 14 8 30c56 193 134 436 234 727s171 508 214 651c8 27 34 40 78 40z
M968 292c0 -12 -17 -18 -50 -18c-8 0 -12 -9 -12 -26c0 -24 0 -61 1 -110s1 -86 1 -110c0 -16 -1 -18 -28 -18h-84c-11 0 -16 5 -16 16c0 28 0 69 1 123s1 94 1 121c0 5 -2 8 -6 8c-15 0 -41 -2 -79 -5s-68 -5 -91 -5c-17 0 -26 3 -26 8c0 20 -1 47 -3 80s-3 59 -3 76
c0 4 3 13 10 26c53 109 97 191 130 244c7 11 15 16 26 16c7 0 27 1 60 2s59 2 76 2s26 -22 26 -66v-266c0 -5 3 -8 8 -8c21 0 35 2 46 2c3 0 5 -6 6 -18c4 -48 6 -73 6 -74zM688 382h70c19 0 21 3 24 32c0 1 0 13 1 35s1 41 1 57c0 64 -4 96 -12 96c-4 0 -12 -12 -25 -37
s-26 -53 -41 -85s-23 -51 -26 -56c-5 -11 -8 -19 -8 -24c0 -12 5 -18 16 -18z" />
    <glyph glyph-name="onehalf" unicode="&#xbd;" horiz-adv-x="1036" 
d="M868 10h-202c-21 0 -32 6 -32 18c0 21 2 48 6 80c4 29 14 53 30 70c7 7 23 23 49 48s46 46 59 61s29 36 47 62c36 52 53 104 53 163c0 61 -27 104 -64 104s-54 -43 -54 -86v-16c0 -17 -4 -20 -30 -20c-3 0 -13 -1 -31 -3s-32 -3 -43 -3c-13 0 -21 9 -22 26
c-1 3 -2 5 -2 8c-1 12 -2 31 -2 58c0 45 19 83 57 112s81 44 129 44c101 0 172 -77 172 -194c0 -79 -14 -147 -43 -205s-72 -118 -129 -179h24c10 0 59 2 66 2h22c30 -6 29 -5 32 -36c5 -40 8 -72 8 -96c0 -13 -4 -16 -20 -16h-12c-13 0 -52 -2 -68 -2zM46 1216l14 24
c13 20 43 70 90 150c3 4 5 9 8 14c3 7 7 10 12 10c44 0 89 -1 134 -4c37 -3 32 -5 32 -24c0 -71 1 -178 3 -322s3 -251 3 -320c0 -19 -1 -18 -20 -18h-6c-5 0 -21 0 -47 -1s-41 -1 -45 -1c-19 0 -24 5 -24 32v522c-12 -13 -34 -84 -62 -78c-61 0 -92 5 -92 16zM724 1452h28
c32 0 48 -5 48 -16c0 -3 -1 -9 -4 -20c-57 -208 -131 -452 -221 -733s-158 -502 -205 -665c-3 -11 -13 -17 -32 -18c-29 -3 -61 -12 -106 -12c-28 0 -42 5 -42 16c0 4 3 14 8 30c56 193 134 436 234 727s171 508 214 651c8 27 34 40 78 40z" />
    <glyph glyph-name="threequarters" unicode="&#xbe;" horiz-adv-x="1010" 
d="M684 382h70c19 0 21 3 24 32c0 1 0 13 1 35s1 41 1 57c0 64 -4 96 -12 96s-36 -56 -67 -121c-15 -33 -24 -52 -27 -57c-4 -8 -6 -16 -6 -24c0 -12 5 -18 16 -18zM962 292c0 -12 -16 -18 -48 -18c-8 0 -12 -9 -12 -26c0 -24 0 -61 1 -110s1 -86 1 -110
c0 -16 -3 -18 -30 -18h-82c-11 0 -16 5 -16 16v244c0 5 -1 8 -4 8c-15 0 -41 -2 -79 -5s-68 -5 -91 -5c-19 0 -28 3 -28 8c0 20 -1 47 -2 80s-2 59 -2 76c0 7 3 15 8 26c49 100 93 181 132 244c7 11 15 16 26 16c7 0 27 1 60 2s59 2 76 2c16 0 24 -22 24 -66
c0 -29 0 -74 1 -134s1 -104 1 -132c0 -5 3 -8 8 -8c21 0 33 2 44 2c4 0 7 -6 8 -18c3 -32 4 -57 4 -74zM726 1452h30c32 0 48 -5 48 -16c0 -3 -1 -9 -4 -20c-57 -207 -131 -450 -222 -731s-159 -503 -206 -667c-3 -11 -13 -17 -30 -18c-29 -3 -63 -12 -108 -12
c-27 0 -40 5 -40 16c0 4 3 14 8 30c56 193 134 436 234 727s171 508 214 651c8 27 33 40 76 40zM186 1326c-25 0 -98 -10 -126 -10c-13 0 -14 1 -14 28v74c0 15 5 22 14 22c1 1 4 2 8 2h8c57 7 103 10 136 10c112 0 168 -57 168 -170c0 -64 -24 -130 -40 -155
c-8 -13 -14 -21 -18 -25c11 -8 36 -30 61 -78c13 -24 19 -48 19 -72c0 -89 -25 -150 -74 -181s-129 -50 -238 -55h-18c-19 0 -19 2 -24 26c-1 7 -2 17 -2 32v22c0 19 2 29 6 32c4 1 10 2 18 2c13 0 23 1 30 2c2 0 48 6 52 7s12 2 24 4c24 4 28 7 45 15c28 15 44 38 45 80
c0 72 -31 108 -94 108c-13 0 -20 3 -20 10c-1 1 -2 4 -2 8v4l-6 60c0 8 7 13 20 14c69 7 104 41 104 104c0 53 -27 80 -82 80z" />
    <glyph glyph-name="questiondown" unicode="&#xbf;" horiz-adv-x="780" 
d="M310 1430c0 24 1 21 46 24c53 3 99 4 138 4c24 0 38 -3 43 -8s7 -21 7 -48c0 -17 0 -40 1 -67s1 -46 1 -57c0 -16 -1 -25 -12 -30s-14 -6 -38 -6c-59 -5 -110 -8 -154 -8c-29 0 -36 7 -36 28c0 17 1 45 2 82s2 66 2 86zM732 270c0 -101 -29 -189 -87 -264
s-143 -112 -255 -112c-97 0 -179 38 -244 115s-98 162 -98 255c0 141 33 242 68 290c17 24 42 56 75 97s60 80 81 119c23 41 34 114 34 218c0 15 0 37 -1 66s-1 51 -1 64c0 17 11 26 32 26c23 0 77 -3 162 -8c40 -3 46 -15 46 -52v-82c0 -69 -4 -127 -12 -174
c-9 -52 -35 -105 -76 -159s-79 -111 -113 -170s-51 -127 -51 -203c0 -116 39 -174 118 -174c69 0 93 40 98 136c3 43 13 54 48 54c47 0 93 -3 138 -8c25 -1 38 -13 38 -34z" />
    <glyph glyph-name="Agrave" unicode="&#xc0;" horiz-adv-x="918" 
d="M552 658c0 13 -3 37 -10 70l-14 90c-8 60 -18 122 -30 185s-23 114 -34 151c-3 5 -5 24 -9 31s-10 17 -21 17c-5 0 -17 -27 -20 -40c-9 -59 -20 -135 -31 -229s-21 -166 -29 -217c0 -1 -1 -11 -2 -29s-2 -28 -2 -31c0 -11 15 -19 45 -24s55 -8 75 -8h4c52 0 78 11 78 34z
M894 106c5 -35 8 -53 8 -56c0 -23 -15 -34 -46 -34c-4 0 -15 0 -33 1s-33 1 -45 1h-74h-38c-32 0 -38 6 -46 54c-4 28 -10 79 -17 153s-13 125 -17 153v6c-5 23 -16 35 -32 36h-46c-44 -1 -91 -5 -142 -10c-27 -3 -32 -7 -40 -28c-8 -25 -15 -57 -20 -94
c-3 -19 -8 -53 -17 -103s-14 -88 -17 -115c0 -8 -4 -35 -5 -40c-1 -3 -2 -7 -4 -13c-4 -13 -19 -19 -47 -19c-5 0 -52 3 -140 8c-39 4 -58 17 -58 38c0 15 6 52 18 112c15 84 45 268 92 553s86 507 118 667c4 20 8 32 12 36s16 6 36 6h6c83 0 179 -3 290 -10
c25 -1 41 -5 47 -10s12 -19 19 -42c60 -245 139 -662 238 -1250zM236 1722c-11 17 -16 27 -16 30c0 5 13 8 40 8c20 1 48 3 85 5s64 3 81 3c13 0 21 -3 24 -7s7 -18 10 -23c28 -75 52 -137 72 -186c11 -24 16 -37 16 -40c0 -11 -11 -16 -32 -16h-116c-47 -1 -43 6 -58 28
c-9 16 -26 47 -49 93s-42 81 -57 105z" />
    <glyph glyph-name="Aacute" unicode="&#xc1;" horiz-adv-x="918" 
d="M552 658c0 13 -3 37 -10 70l-14 90c-8 60 -18 122 -30 185s-23 114 -34 151c-3 5 -5 24 -9 31s-10 17 -21 17c-5 0 -17 -27 -20 -40c-9 -59 -20 -135 -31 -229s-21 -166 -29 -217c0 -1 -1 -11 -2 -29s-2 -28 -2 -31c0 -11 15 -19 45 -24s55 -8 75 -8h4c52 0 78 11 78 34z
M894 106c5 -35 8 -53 8 -56c0 -23 -15 -34 -46 -34c-4 0 -15 0 -33 1s-33 1 -45 1h-74h-38c-32 0 -38 6 -46 54c-4 28 -10 79 -17 153s-13 125 -17 153v6c-5 23 -16 35 -32 36h-46c-44 -1 -91 -5 -142 -10c-27 -3 -32 -7 -40 -28c-8 -25 -15 -57 -20 -94
c-3 -19 -8 -53 -17 -103s-14 -88 -17 -115c0 -8 -4 -35 -5 -40c-1 -3 -2 -7 -4 -13c-4 -13 -19 -19 -47 -19c-5 0 -52 3 -140 8c-39 4 -58 17 -58 38c0 15 6 52 18 112c15 84 45 268 92 553s86 507 118 667c4 20 8 32 12 36s16 6 36 6h6c83 0 179 -3 290 -10
c25 -1 41 -5 47 -10s12 -19 19 -42c60 -245 139 -662 238 -1250zM536 1496h-4c-117 0 -176 3 -176 10c0 4 3 11 8 20c12 23 30 58 55 105s42 81 53 101c13 22 8 38 42 36c24 0 61 -2 112 -6s76 -9 76 -14l-14 -24c-56 -88 -98 -155 -126 -200c-16 -24 -14 -28 -26 -28z" />
    <glyph glyph-name="Acircumflex" unicode="&#xc2;" horiz-adv-x="918" 
d="M552 658c0 13 -3 37 -10 70l-14 90c-8 60 -18 122 -30 185s-23 114 -34 151c-3 5 -5 24 -9 31s-10 17 -21 17c-5 0 -17 -27 -20 -40c-9 -59 -20 -135 -31 -229s-21 -166 -29 -217c0 -1 -1 -11 -2 -29s-2 -28 -2 -31c0 -11 15 -19 45 -24s55 -8 75 -8h4c52 0 78 11 78 34z
M894 106c5 -35 8 -53 8 -56c0 -23 -15 -34 -46 -34c-4 0 -15 0 -33 1s-33 1 -45 1h-74h-38c-32 0 -38 6 -46 54c-4 28 -10 79 -17 153s-13 125 -17 153v6c-5 23 -16 35 -32 36h-46c-44 -1 -91 -5 -142 -10c-27 -3 -32 -7 -40 -28c-8 -25 -15 -57 -20 -94
c-3 -19 -8 -53 -17 -103s-14 -88 -17 -115c0 -8 -4 -35 -5 -40c-1 -3 -2 -7 -4 -13c-4 -13 -19 -19 -47 -19c-5 0 -52 3 -140 8c-39 4 -58 17 -58 38c0 15 6 52 18 112c15 84 45 268 92 553s86 507 118 667c4 20 8 32 12 36s16 6 36 6h6c83 0 179 -3 290 -10
c25 -1 41 -5 47 -10s12 -19 19 -42c60 -245 139 -662 238 -1250zM388 1810h138c35 0 46 -12 62 -52c45 -100 80 -183 104 -250l4 -16c0 -11 -13 -8 -73 -7c-30 1 -52 1 -67 1h-8c-9 0 -15 2 -18 6c0 3 -1 5 -2 6c-8 15 -17 34 -26 59s-16 42 -20 51c-19 40 -25 37 -46 8
c-4 -5 -21 -36 -52 -92c-13 -22 -13 -28 -46 -28h-128c-17 0 -26 3 -26 8c0 3 6 15 18 36c7 12 26 46 58 101s56 97 72 125c16 29 35 44 56 44z" />
    <glyph glyph-name="Atilde" unicode="&#xc3;" horiz-adv-x="918" 
d="M552 658c0 13 -3 37 -10 70l-14 90c-8 60 -18 122 -30 185s-23 114 -34 151c-3 5 -5 24 -9 31s-10 17 -21 17c-5 0 -17 -27 -20 -40c-9 -59 -20 -135 -31 -229s-21 -166 -29 -217c0 -1 -1 -11 -2 -29s-2 -28 -2 -31c0 -11 15 -19 45 -24s55 -8 75 -8h4c52 0 78 11 78 34z
M894 106c5 -35 8 -53 8 -56c0 -23 -15 -34 -46 -34c-4 0 -15 0 -33 1s-33 1 -45 1h-74h-38c-32 0 -38 6 -46 54c-4 28 -10 79 -17 153s-13 125 -17 153v6c-5 23 -16 35 -32 36h-46c-44 -1 -91 -5 -142 -10c-27 -3 -32 -7 -40 -28c-8 -25 -15 -57 -20 -94
c-3 -19 -8 -53 -17 -103s-14 -88 -17 -115c0 -8 -4 -35 -5 -40c-1 -3 -2 -7 -4 -13c-4 -13 -19 -19 -47 -19c-5 0 -52 3 -140 8c-39 4 -58 17 -58 38c0 15 6 52 18 112c15 84 45 268 92 553s86 507 118 667c4 20 8 32 12 36s16 6 36 6h6c83 0 179 -3 290 -10
c25 -1 41 -5 47 -10s12 -19 19 -42c60 -245 139 -662 238 -1250zM232 1496h-26h-36c-11 3 -16 11 -16 26c0 192 60 278 220 278c32 0 59 -13 81 -38s43 -50 63 -75s42 -37 66 -37c47 0 81 30 104 90c4 11 8 16 12 16c12 0 28 -4 48 -12s30 -15 30 -20c0 -23 -1 -39 -4 -50
c-12 -53 -36 -100 -72 -139s-75 -59 -116 -59c-101 -5 -176 140 -214 134c-39 1 -71 -7 -100 -82c-7 -21 -20 -32 -40 -32z" />
    <glyph glyph-name="Adieresis" unicode="&#xc4;" horiz-adv-x="918" 
d="M552 658c0 13 -3 37 -10 70l-14 90c-8 60 -18 122 -30 185s-23 114 -34 151c-3 5 -5 24 -9 31s-10 17 -21 17c-5 0 -17 -27 -20 -40c-9 -59 -20 -135 -31 -229s-21 -166 -29 -217c0 -1 -1 -11 -2 -29s-2 -28 -2 -31c0 -11 15 -19 45 -24s55 -8 75 -8h4c52 0 78 11 78 34z
M894 106c5 -35 8 -53 8 -56c0 -23 -15 -34 -46 -34c-4 0 -15 0 -33 1s-33 1 -45 1h-74h-38c-32 0 -38 6 -46 54c-4 28 -10 79 -17 153s-13 125 -17 153v6c-5 23 -16 35 -32 36h-46c-44 -1 -91 -5 -142 -10c-27 -3 -32 -7 -40 -28c-8 -25 -15 -57 -20 -94
c-3 -19 -8 -53 -17 -103s-14 -88 -17 -115c0 -8 -4 -35 -5 -40c-1 -3 -2 -7 -4 -13c-4 -13 -19 -19 -47 -19c-5 0 -52 3 -140 8c-39 4 -58 17 -58 38c0 15 6 52 18 112c15 84 45 268 92 553s86 507 118 667c4 20 8 32 12 36s16 6 36 6h6c83 0 179 -3 290 -10
c25 -1 41 -5 47 -10s12 -19 19 -42c60 -245 139 -662 238 -1250zM314 1502c-75 0 -102 32 -102 120c0 59 46 106 102 106c24 0 46 -11 66 -32s30 -45 30 -72c0 -69 -45 -122 -96 -122zM698 1618c0 -80 -37 -110 -120 -110c-45 0 -90 45 -90 120c0 21 10 41 30 59
s41 27 64 27c61 0 116 -37 116 -96z" />
    <glyph glyph-name="Aring" unicode="&#xc5;" horiz-adv-x="918" 
d="M448 1498c53 0 96 35 96 94c0 53 -47 86 -92 86c-51 0 -92 -39 -92 -92s37 -88 88 -88zM894 106c5 -35 8 -53 8 -56c0 -23 -15 -34 -46 -34c-4 0 -15 0 -33 1s-33 1 -45 1h-74h-38c-32 0 -38 6 -46 54c-4 28 -10 79 -17 153s-13 125 -17 153c-3 21 -34 42 -74 42h-4
c-44 -1 -91 -5 -142 -10c-27 -3 -32 -7 -40 -28c-8 -25 -15 -57 -20 -94c-3 -19 -8 -53 -17 -103s-14 -88 -17 -115c0 -8 -4 -35 -5 -40c-1 -3 -2 -7 -4 -13c-4 -13 -19 -19 -47 -19c-5 0 -52 3 -140 8c-39 4 -58 17 -58 38c0 15 6 52 18 112c15 84 45 268 92 553
s86 507 118 667c4 20 8 32 11 36s14 6 31 6c-44 41 -66 92 -66 152c0 68 19 126 57 174s91 72 159 72c155 0 248 -75 248 -222c0 -77 -29 -139 -86 -186c21 -1 35 -5 40 -10s11 -19 16 -42c60 -245 139 -662 238 -1250zM552 658c0 13 -3 37 -10 70l-14 90
c-8 60 -18 122 -30 185s-23 114 -34 151c-3 5 -5 24 -9 31s-10 17 -21 17c-5 0 -17 -27 -20 -40c-9 -59 -20 -135 -31 -229s-21 -166 -29 -217c0 -1 -1 -11 -2 -29s-2 -28 -2 -31c0 -11 15 -19 45 -24s55 -8 75 -8h4c52 0 78 11 78 34z" />
    <glyph glyph-name="AE" unicode="&#xc6;" horiz-adv-x="1134" 
d="M518 654l12 540c-9 5 -29 8 -60 8h-36c-8 0 -14 -13 -18 -40c-11 -59 -22 -135 -33 -230s-21 -167 -29 -216c0 -1 -1 -11 -2 -29s-2 -28 -2 -31c107 -1 163 -2 168 -2zM296 1418c261 15 503 22 724 22c29 0 47 -3 52 -10s9 -27 12 -62c1 -20 2 -49 2 -86
c0 -19 2 -52 2 -60c0 -37 -12 -53 -60 -56c-93 -5 -166 -8 -218 -8c-32 0 -48 -16 -48 -48c0 -31 0 -75 1 -134s1 -102 1 -130c0 -31 17 -46 50 -46c8 0 29 2 34 2c1 0 75 6 106 6c37 0 46 -9 46 -44v-46v-106c0 -11 2 -29 2 -34c0 -17 -9 -26 -28 -26
c-69 -3 -121 -4 -156 -4c-45 -3 -52 -16 -52 -64v-162c0 -43 12 -64 36 -64c4 0 39 0 105 -1s110 -1 133 -1c19 0 30 -2 33 -6s6 -19 9 -44s4 -69 4 -130v-30c0 -37 -7 -46 -34 -46h-38h-162c-68 0 -151 5 -250 14c-72 5 -86 36 -86 124c0 19 0 47 -1 85s-1 65 -1 81
c0 20 2 86 2 106c-11 1 -43 2 -96 2h-40c-35 0 -56 -10 -64 -30c-19 -56 -28 -113 -36 -212c-4 -49 -7 -83 -8 -100c0 -11 -4 -40 -5 -47c-1 -3 -3 -8 -6 -13c-7 -11 -19 -12 -43 -12c-5 0 -52 3 -140 8c-39 4 -58 17 -58 38c0 15 6 52 18 112c15 84 45 268 92 553
s86 507 118 667c4 20 8 32 12 35s16 6 36 7z" />
    <glyph glyph-name="Ccedilla" unicode="&#xc7;" horiz-adv-x="1134" 
d="M678 -14c-7 -16 -10 -32 -10 -48c0 -15 10 -14 30 -34c16 -15 30 -36 43 -65s19 -55 19 -79c0 -147 -78 -198 -214 -198c-27 0 -55 1 -84 4c-30 0 -40 -3 -40 18v2c0 67 6 100 18 100h28c16 0 51 -2 62 -2c43 0 64 31 64 94c0 41 -29 73 -86 94c-17 7 -26 13 -26 20
c0 1 2 9 5 23s6 23 7 27c5 21 9 37 10 46c-152 25 -266 104 -342 236s-114 299 -114 500c0 200 52 371 155 512s243 212 419 212c149 0 265 -44 334 -124s104 -165 128 -282c0 -5 2 -11 2 -14c2 -42 -34 -30 -76 -34c-51 -5 -96 -8 -136 -8c-32 0 -47 9 -68 52
c-39 79 -105 118 -198 118c-80 0 -150 -43 -209 -130s-89 -187 -89 -302c0 -131 28 -242 84 -334s131 -138 226 -138c27 0 58 9 93 27s61 41 77 69c7 11 12 25 16 44s10 32 18 40s24 13 48 14c9 0 33 1 72 4s67 4 84 4c40 0 60 -14 60 -42c0 -111 -41 -205 -124 -282
s-178 -125 -286 -144z" />
    <glyph glyph-name="Egrave" unicode="&#xc8;" horiz-adv-x="676" 
d="M490 836c40 0 52 -6 52 -38v-202c0 -17 -9 -26 -28 -26c-69 -3 -121 -4 -154 -4c-45 -3 -52 -14 -52 -62v-198c0 -36 21 -54 62 -54c-3 0 177 4 212 4c19 0 30 -2 34 -7s6 -20 6 -45l4 -160c0 -37 -7 -46 -34 -46c-5 0 -27 2 -38 2h-160c-83 0 -167 4 -252 12
c-72 5 -86 38 -86 126v164c0 73 5 419 16 1038c1 47 6 75 15 85s34 15 77 15c27 0 65 0 116 -1s87 -1 108 -1c4 0 28 0 71 1s77 1 101 1c28 0 45 -4 51 -11s10 -28 13 -63c3 -67 4 -115 4 -146c0 -37 -12 -51 -60 -54c-93 -5 -165 -8 -216 -8c-24 0 -48 -18 -48 -50
c0 -31 0 -69 1 -116s1 -84 1 -112c0 -31 16 -46 48 -46c11 0 30 0 57 1s54 1 79 1zM124 1740c-11 17 -16 27 -16 30c0 5 13 8 40 8c20 1 48 3 85 5s64 3 81 3c13 0 21 -3 24 -7s7 -18 10 -23c28 -75 52 -137 72 -186c11 -24 16 -37 16 -40c0 -11 -11 -16 -32 -16h-116
c-47 -1 -43 6 -58 28c-9 16 -26 47 -49 93s-42 81 -57 105z" />
    <glyph glyph-name="Eacute" unicode="&#xc9;" horiz-adv-x="676" 
d="M490 836c40 0 52 -6 52 -38v-202c0 -17 -9 -26 -28 -26c-69 -3 -121 -4 -154 -4c-45 -3 -52 -14 -52 -62v-198c0 -36 21 -54 62 -54c-3 0 177 4 212 4c19 0 30 -2 34 -7s6 -20 6 -45l4 -160c0 -37 -7 -46 -34 -46c-5 0 -27 2 -38 2h-160c-83 0 -167 4 -252 12
c-72 5 -86 38 -86 126v164c0 73 5 419 16 1038c1 47 6 75 15 85s34 15 77 15c27 0 65 0 116 -1s87 -1 108 -1c4 0 28 0 71 1s77 1 101 1c28 0 45 -4 51 -11s10 -28 13 -63c3 -67 4 -115 4 -146c0 -37 -12 -51 -60 -54c-93 -5 -165 -8 -216 -8c-24 0 -48 -18 -48 -50
c0 -31 0 -69 1 -116s1 -84 1 -112c0 -31 16 -46 48 -46c11 0 30 0 57 1s54 1 79 1zM432 1514h-4c-117 0 -176 3 -176 10c0 4 3 11 8 20c12 23 30 58 55 105s42 81 53 101c13 22 8 38 42 36c24 0 61 -2 112 -6s76 -9 76 -14l-14 -24c-56 -88 -98 -155 -126 -200
c-16 -24 -14 -28 -26 -28z" />
    <glyph glyph-name="Ecircumflex" unicode="&#xca;" horiz-adv-x="676" 
d="M490 836c40 0 52 -6 52 -38v-202c0 -17 -9 -26 -28 -26c-69 -3 -121 -4 -154 -4c-45 -3 -52 -14 -52 -62v-198c0 -36 21 -54 62 -54c-3 0 177 4 212 4c19 0 30 -2 34 -7s6 -20 6 -45l4 -160c0 -37 -7 -46 -34 -46c-5 0 -27 2 -38 2h-160c-83 0 -167 4 -252 12
c-72 5 -86 38 -86 126v164c0 73 5 419 16 1038c1 47 6 75 15 85s34 15 77 15c27 0 65 0 116 -1s87 -1 108 -1c4 0 28 0 71 1s77 1 101 1c28 0 45 -4 51 -11s10 -28 13 -63c3 -67 4 -115 4 -146c0 -37 -12 -51 -60 -54c-93 -5 -165 -8 -216 -8c-24 0 -48 -18 -48 -50
c0 -31 0 -69 1 -116s1 -84 1 -112c0 -31 16 -46 48 -46c11 0 30 0 57 1s54 1 79 1zM300 1840h138c35 0 46 -12 62 -52c45 -100 80 -183 104 -250l4 -16c0 -11 -13 -8 -73 -7c-30 1 -52 1 -67 1h-8c-9 0 -15 2 -18 6c0 3 -1 5 -2 6c-8 15 -17 34 -26 59s-16 42 -20 51
c-19 40 -25 37 -46 8c-4 -5 -21 -36 -52 -92c-13 -22 -13 -28 -46 -28h-128c-17 0 -26 3 -26 8c0 3 6 15 18 36c7 12 26 46 58 101s56 97 72 125c16 29 35 44 56 44z" />
    <glyph glyph-name="Edieresis" unicode="&#xcb;" horiz-adv-x="676" 
d="M490 836c40 0 52 -6 52 -38v-202c0 -17 -9 -26 -28 -26c-69 -3 -121 -4 -154 -4c-45 -3 -52 -14 -52 -62v-198c0 -36 21 -54 62 -54c-3 0 177 4 212 4c19 0 30 -2 34 -7s6 -20 6 -45l4 -160c0 -37 -7 -46 -34 -46c-5 0 -27 2 -38 2h-160c-83 0 -167 4 -252 12
c-72 5 -86 38 -86 126v164c0 73 5 419 16 1038c1 47 6 75 15 85s34 15 77 15c27 0 65 0 116 -1s87 -1 108 -1c4 0 28 0 71 1s77 1 101 1c28 0 45 -4 51 -11s10 -28 13 -63c3 -67 4 -115 4 -146c0 -37 -12 -51 -60 -54c-93 -5 -165 -8 -216 -8c-24 0 -48 -18 -48 -50
c0 -31 0 -69 1 -116s1 -84 1 -112c0 -31 16 -46 48 -46c11 0 30 0 57 1s54 1 79 1zM206 1522c-75 0 -102 32 -102 120c0 59 46 106 102 106c24 0 46 -11 66 -32s30 -45 30 -72c0 -69 -45 -122 -96 -122zM590 1638c0 -80 -37 -110 -120 -110c-45 0 -90 45 -90 120
c0 21 10 41 30 59s41 27 64 27c61 0 116 -37 116 -96z" />
    <glyph glyph-name="Igrave" unicode="&#xcc;" horiz-adv-x="394" 
d="M56 54c0 176 3 418 10 726s11 505 12 592v10c0 25 3 42 9 49s22 12 49 13c51 4 98 6 142 6h30c27 0 26 -2 26 -34c0 -155 -1 -380 -4 -676s-4 -525 -4 -686v-26c0 -27 -6 -28 -54 -28c-75 0 -135 5 -182 16c-29 5 -34 14 -34 38zM20 1746c-11 17 -16 27 -16 30
c0 5 13 8 40 8c20 1 48 3 85 5s64 3 81 3c13 0 21 -3 24 -7s7 -18 10 -23c28 -75 52 -137 72 -186c11 -24 16 -37 16 -40c0 -11 -11 -16 -32 -16h-116c-47 -1 -43 6 -58 28c-9 16 -26 47 -49 93s-42 81 -57 105z" />
    <glyph glyph-name="Iacute" unicode="&#xcd;" horiz-adv-x="394" 
d="M56 54c0 176 3 418 10 726s11 505 12 592v10c0 25 3 42 9 49s22 12 49 13c51 4 98 6 142 6h30c27 0 26 -2 26 -34c0 -155 -1 -380 -4 -676s-4 -525 -4 -686v-26c0 -27 -6 -28 -54 -28c-75 0 -135 5 -182 16c-29 5 -34 14 -34 38zM294 1520h-4c-117 0 -176 3 -176 10
c0 4 3 11 8 20c12 23 30 58 55 105s42 81 53 101c13 22 8 38 42 36c24 0 61 -2 112 -6s76 -9 76 -14l-14 -24c-56 -88 -98 -155 -126 -200c-16 -24 -14 -28 -26 -28z" />
    <glyph glyph-name="Icircumflex" unicode="&#xce;" horiz-adv-x="394" 
d="M56 54c0 176 3 418 10 726s11 505 12 592v10c0 25 3 42 9 49s22 12 49 13c51 4 98 6 142 6h30c27 0 26 -2 26 -34c0 -155 -1 -380 -4 -676s-4 -525 -4 -686v-26c0 -27 -6 -28 -54 -28c-75 0 -135 5 -182 16c-29 5 -34 14 -34 38zM140 1828h138c35 0 46 -12 62 -52
c45 -100 80 -183 104 -250l4 -16c0 -11 -13 -8 -73 -7c-30 1 -52 1 -67 1h-8c-9 0 -15 2 -18 6c0 3 -1 5 -2 6c-8 15 -17 34 -26 59s-16 42 -20 51c-19 40 -25 37 -46 8c-4 -5 -21 -36 -52 -92c-13 -22 -13 -28 -46 -28h-128c-17 0 -26 3 -26 8c0 3 6 15 18 36
c7 12 26 46 58 101s56 97 72 125c16 29 35 44 56 44z" />
    <glyph glyph-name="Idieresis" unicode="&#xcf;" horiz-adv-x="394" 
d="M56 54c0 176 3 418 10 726s11 505 12 592v10c0 25 3 42 9 49s22 12 49 13c51 4 98 6 142 6h30c27 0 26 -2 26 -34c0 -155 -1 -380 -4 -676s-4 -525 -4 -686v-26c0 -27 -6 -28 -54 -28c-75 0 -135 5 -182 16c-29 5 -34 14 -34 38zM84 1514c-75 0 -102 32 -102 120
c0 59 46 106 102 106c24 0 46 -11 66 -32s30 -45 30 -72c0 -69 -45 -122 -96 -122zM468 1630c0 -80 -37 -110 -120 -110c-45 0 -90 45 -90 120c0 21 10 41 30 59s41 27 64 27c61 0 116 -37 116 -96z" />
    <glyph glyph-name="Eth" unicode="&#xd0;" horiz-adv-x="940" 
d="M92 848h48c-7 283 -10 453 -10 512c0 41 4 68 13 79s30 17 65 17c175 0 303 -8 384 -24c92 -17 165 -84 219 -201s81 -242 81 -375c0 -205 -21 -368 -64 -488c-45 -127 -108 -220 -187 -279s-187 -89 -323 -89c-40 0 -71 1 -94 2c-33 3 -54 11 -62 25s-12 39 -12 75
s-1 121 -4 256s-4 219 -4 252v24h-42c-43 0 -46 2 -46 34v18c0 15 0 37 -1 67s-1 52 -1 65c0 27 3 30 40 30zM410 632h-34v-260c0 -43 25 -64 76 -64c41 0 79 25 112 76s57 108 72 172s22 124 22 180c0 120 -15 223 -52 316s-107 150 -200 150c-23 0 -34 -23 -34 -68
c0 -12 0 -50 1 -115s1 -120 1 -165c31 1 75 2 132 2c17 0 26 -13 26 -38c0 -7 0 -28 -1 -65s-1 -60 -1 -69c0 -30 -2 -45 -13 -47c-9 -1 -7 -3 -23 -3h-18c-13 0 -47 -2 -66 -2z" />
    <glyph glyph-name="Ntilde" unicode="&#xd1;" horiz-adv-x="952" 
d="M70 958c0 44 0 111 -1 201s-1 158 -1 205c0 33 4 54 13 62s28 12 57 12c11 0 45 -2 66 -2c32 0 49 -9 53 -14c2 -3 5 -11 10 -24s8 -23 9 -28l366 -860l16 828c0 29 0 55 6 74c5 15 13 22 34 22c11 0 37 0 78 1s69 1 84 1c32 0 32 -1 32 -30v-42v-84
c0 -109 0 -249 1 -419s1 -294 1 -371c0 -32 0 -82 1 -150s1 -121 1 -160c0 -13 0 -34 -1 -63s-1 -51 -1 -67c0 -35 -11 -52 -34 -52c-24 0 -60 3 -107 10s-82 11 -103 12c-48 3 -61 15 -80 60c-21 48 -51 117 -89 206s-60 141 -67 154l-120 284c-1 -224 -2 -339 -2 -344
c0 -37 0 -84 1 -140s1 -104 1 -144v-44c0 -45 -6 -52 -38 -52c-29 0 -85 3 -168 10c-32 3 -38 9 -38 30c0 77 1 140 4 188c11 256 16 499 16 730zM270 1526h-26h-36c-11 3 -16 11 -16 26c0 192 60 278 220 278c32 0 59 -13 81 -38s43 -50 63 -75s42 -37 66 -37
c47 0 81 30 104 90c4 11 8 16 12 16c12 0 28 -4 48 -12s30 -15 30 -20c0 -23 -1 -39 -4 -50c-12 -53 -36 -100 -72 -139s-75 -59 -116 -59c-101 -5 -176 140 -214 134c-39 1 -71 -7 -100 -82c-7 -21 -20 -32 -40 -32z" />
    <glyph glyph-name="Ograve" unicode="&#xd2;" horiz-adv-x="1236" 
d="M1194 780c0 -249 -55 -444 -165 -583s-253 -209 -429 -209c-179 0 -317 67 -415 202s-147 323 -147 566c0 191 55 353 166 488s255 202 432 202c169 0 305 -66 406 -198s152 -288 152 -468zM626 308c96 0 174 42 233 126s89 176 89 276c0 124 -27 231 -80 322
s-129 136 -228 136s-181 -41 -246 -123s-98 -185 -98 -309c0 -113 31 -213 94 -299s141 -129 236 -129zM384 1750c-11 17 -16 27 -16 30c0 5 13 8 40 8c20 1 48 3 85 5s64 3 81 3c13 0 21 -3 24 -7s7 -18 10 -23c28 -75 52 -137 72 -186c11 -24 16 -37 16 -40
c0 -11 -11 -16 -32 -16h-116c-47 -1 -43 6 -58 28c-9 16 -26 47 -49 93s-42 81 -57 105z" />
    <glyph glyph-name="Oacute" unicode="&#xd3;" horiz-adv-x="1236" 
d="M1194 780c0 -249 -55 -444 -165 -583s-253 -209 -429 -209c-179 0 -317 67 -415 202s-147 323 -147 566c0 191 55 353 166 488s255 202 432 202c169 0 305 -66 406 -198s152 -288 152 -468zM626 308c96 0 174 42 233 126s89 176 89 276c0 124 -27 231 -80 322
s-129 136 -228 136s-181 -41 -246 -123s-98 -185 -98 -309c0 -113 31 -213 94 -299s141 -129 236 -129zM734 1530h-4c-117 0 -176 3 -176 10c0 4 3 11 8 20c12 23 30 58 55 105s42 81 53 101c13 22 8 38 42 36c24 0 61 -2 112 -6s76 -9 76 -14l-14 -24
c-56 -88 -98 -155 -126 -200c-16 -24 -14 -28 -26 -28z" />
    <glyph glyph-name="Ocircumflex" unicode="&#xd4;" horiz-adv-x="1236" 
d="M1194 780c0 -249 -55 -444 -165 -583s-253 -209 -429 -209c-179 0 -317 67 -415 202s-147 323 -147 566c0 191 55 353 166 488s255 202 432 202c169 0 305 -66 406 -198s152 -288 152 -468zM626 308c96 0 174 42 233 126s89 176 89 276c0 124 -27 231 -80 322
s-129 136 -228 136s-181 -41 -246 -123s-98 -185 -98 -309c0 -113 31 -213 94 -299s141 -129 236 -129zM566 1840h138c35 0 46 -12 62 -52c45 -100 80 -183 104 -250l4 -16c0 -11 -13 -8 -73 -7c-30 1 -52 1 -67 1h-8c-9 0 -15 2 -18 6c0 3 -1 5 -2 6c-8 15 -17 34 -26 59
s-16 42 -20 51c-19 40 -25 37 -46 8c-4 -5 -21 -36 -52 -92c-13 -22 -13 -28 -46 -28h-128c-17 0 -26 3 -26 8c0 3 6 15 18 36c7 12 26 46 58 101s56 97 72 125c16 29 35 44 56 44z" />
    <glyph glyph-name="Otilde" unicode="&#xd5;" horiz-adv-x="1236" 
d="M1194 780c0 -249 -55 -444 -165 -583s-253 -209 -429 -209c-179 0 -317 67 -415 202s-147 323 -147 566c0 191 55 353 166 488s255 202 432 202c169 0 305 -66 406 -198s152 -288 152 -468zM626 308c96 0 174 42 233 126s89 176 89 276c0 124 -27 231 -80 322
s-129 136 -228 136s-181 -41 -246 -123s-98 -185 -98 -309c0 -113 31 -213 94 -299s141 -129 236 -129zM394 1516h-26h-36c-11 3 -16 11 -16 26c0 192 60 278 220 278c32 0 59 -13 81 -38s43 -50 63 -75s42 -37 66 -37c47 0 81 30 104 90c4 11 8 16 12 16c12 0 28 -4 48 -12
s30 -15 30 -20c0 -23 -1 -39 -4 -50c-12 -53 -36 -100 -72 -139s-75 -59 -116 -59c-101 -5 -176 140 -214 134c-39 1 -71 -7 -100 -82c-7 -21 -20 -32 -40 -32z" />
    <glyph glyph-name="Odieresis" unicode="&#xd6;" horiz-adv-x="1236" 
d="M1194 780c0 -249 -55 -444 -165 -583s-253 -209 -429 -209c-179 0 -317 67 -415 202s-147 323 -147 566c0 191 55 353 166 488s255 202 432 202c169 0 305 -66 406 -198s152 -288 152 -468zM626 308c96 0 174 42 233 126s89 176 89 276c0 124 -27 231 -80 322
s-129 136 -228 136s-181 -41 -246 -123s-98 -185 -98 -309c0 -113 31 -213 94 -299s141 -129 236 -129zM470 1528c-75 0 -102 32 -102 120c0 59 46 106 102 106c24 0 46 -11 66 -32s30 -45 30 -72c0 -69 -45 -122 -96 -122zM854 1644c0 -80 -37 -110 -120 -110
c-45 0 -90 45 -90 120c0 21 10 41 30 59s41 27 64 27c61 0 116 -37 116 -96z" />
    <glyph glyph-name="multiply" unicode="&#xd7;" horiz-adv-x="628" 
d="M566 396c-8 0 -31 -2 -42 -2c-5 0 -24 0 -55 1s-50 1 -57 1h-14c-16 0 -9 10 -18 28c-19 56 -38 124 -47 156c-5 16 -9 27 -13 34c-19 -41 -45 -111 -78 -210c-4 -13 -9 -20 -16 -20c-20 0 -55 2 -105 5s-75 8 -75 13c0 4 2 12 6 24c13 33 33 78 60 133s49 102 66 139
s26 59 26 64c-69 156 -119 263 -148 320c-4 7 -6 11 -6 14c0 4 7 6 20 6c9 0 31 1 65 4s55 4 63 4c11 0 13 1 18 -2l4 -2l2 -6c1 -4 3 -7 4 -8l92 -192c23 53 68 138 86 196c11 15 18 23 22 24c57 0 102 -2 134 -6c16 -3 17 -17 -4 -52c-12 -23 -29 -57 -51 -104
s-41 -89 -57 -126s-24 -57 -24 -60c0 -16 51 -130 152 -342c5 -13 8 -21 8 -24c0 -7 -6 -10 -18 -10z" />
    <glyph glyph-name="Oslash" unicode="&#xd8;" horiz-adv-x="1236" 
d="M626 316c200 0 316 138 316 370c0 124 -25 227 -74 310l-254 -678c3 0 9 -2 12 -2zM1194 798c0 -251 -55 -448 -166 -593s-253 -217 -428 -217c-33 0 -68 3 -104 10l-20 -58c-3 -11 -14 -17 -34 -18c-75 -5 -135 -8 -182 -8h-2c-21 0 -32 5 -32 16c0 4 3 14 8 30l50 130
c-164 129 -246 355 -246 676c0 184 61 346 183 485s260 209 415 209c55 0 110 -11 166 -32l12 30c8 25 33 38 76 38h6c55 0 95 -1 122 -4c16 -1 24 -5 24 -12c0 -5 -6 -25 -6 -28l-52 -144c65 -64 117 -141 154 -231s56 -183 56 -279zM410 414l278 718c-19 3 -35 4 -48 4
c-97 0 -178 -40 -241 -121s-95 -182 -95 -303s35 -221 106 -298z" />
    <glyph glyph-name="Ugrave" unicode="&#xd9;" horiz-adv-x="866" 
d="M124 1442c16 0 39 2 68 5s51 5 66 5c29 0 34 -9 34 -30v-44v-132c0 -65 -1 -175 -3 -330s-3 -262 -3 -322c0 -193 47 -290 142 -290c73 0 110 109 110 328c0 27 -1 62 -2 106s-2 73 -2 86c0 77 -2 183 -5 316s-5 217 -5 250v32c0 19 3 19 38 22c69 5 129 8 180 8
c43 0 50 -11 50 -48c0 -68 1 -118 2 -150c9 -171 14 -420 14 -748c0 -347 -111 -526 -386 -526c-131 0 -225 65 -276 150c-25 43 -45 98 -60 166s-24 132 -28 192s-6 131 -6 212c0 187 5 401 14 644c3 49 8 78 16 86s22 12 42 12zM198 1746c-11 17 -16 27 -16 30
c0 5 13 8 40 8c20 1 48 3 85 5s64 3 81 3c13 0 21 -3 24 -7s7 -18 10 -23c28 -75 52 -137 72 -186c11 -24 16 -37 16 -40c0 -11 -11 -16 -32 -16h-116c-47 -1 -43 6 -58 28c-9 16 -26 47 -49 93s-42 81 -57 105z" />
    <glyph glyph-name="Uacute" unicode="&#xda;" horiz-adv-x="866" 
d="M124 1442c16 0 39 2 68 5s51 5 66 5c29 0 34 -9 34 -30v-44v-132c0 -65 -1 -175 -3 -330s-3 -262 -3 -322c0 -193 47 -290 142 -290c73 0 110 109 110 328c0 27 -1 62 -2 106s-2 73 -2 86c0 77 -2 183 -5 316s-5 217 -5 250v32c0 19 3 19 38 22c69 5 129 8 180 8
c43 0 50 -11 50 -48c0 -68 1 -118 2 -150c9 -171 14 -420 14 -748c0 -347 -111 -526 -386 -526c-131 0 -225 65 -276 150c-25 43 -45 98 -60 166s-24 132 -28 192s-6 131 -6 212c0 187 5 401 14 644c3 49 8 78 16 86s22 12 42 12zM524 1514h-4c-117 0 -176 3 -176 10
c0 4 3 11 8 20c12 23 30 58 55 105s42 81 53 101c13 22 8 38 42 36c24 0 61 -2 112 -6s76 -9 76 -14l-14 -24c-56 -88 -98 -155 -126 -200c-16 -24 -14 -28 -26 -28z" />
    <glyph glyph-name="Ucircumflex" unicode="&#xdb;" horiz-adv-x="866" 
d="M124 1442c16 0 39 2 68 5s51 5 66 5c29 0 34 -9 34 -30v-44v-132c0 -65 -1 -175 -3 -330s-3 -262 -3 -322c0 -193 47 -290 142 -290c73 0 110 109 110 328c0 27 -1 62 -2 106s-2 73 -2 86c0 77 -2 183 -5 316s-5 217 -5 250v32c0 19 3 19 38 22c69 5 129 8 180 8
c43 0 50 -11 50 -48c0 -68 1 -118 2 -150c9 -171 14 -420 14 -748c0 -347 -111 -526 -386 -526c-131 0 -225 65 -276 150c-25 43 -45 98 -60 166s-24 132 -28 192s-6 131 -6 212c0 187 5 401 14 644c3 49 8 78 16 86s22 12 42 12zM382 1840h138c35 0 46 -12 62 -52
c45 -100 80 -183 104 -250l4 -16c0 -11 -13 -8 -73 -7c-30 1 -52 1 -67 1h-8c-9 0 -15 2 -18 6c0 3 -1 5 -2 6c-8 15 -17 34 -26 59s-16 42 -20 51c-19 40 -25 37 -46 8c-4 -5 -21 -36 -52 -92c-13 -22 -13 -28 -46 -28h-128c-17 0 -26 3 -26 8c0 3 6 15 18 36
c7 12 26 46 58 101s56 97 72 125c16 29 35 44 56 44z" />
    <glyph glyph-name="Udieresis" unicode="&#xdc;" horiz-adv-x="866" 
d="M124 1442c16 0 39 2 68 5s51 5 66 5c29 0 34 -9 34 -30v-44v-132c0 -65 -1 -175 -3 -330s-3 -262 -3 -322c0 -193 47 -290 142 -290c73 0 110 109 110 328c0 27 -1 62 -2 106s-2 73 -2 86c0 77 -2 183 -5 316s-5 217 -5 250v32c0 19 3 19 38 22c69 5 129 8 180 8
c43 0 50 -11 50 -48c0 -68 1 -118 2 -150c9 -171 14 -420 14 -748c0 -347 -111 -526 -386 -526c-131 0 -225 65 -276 150c-25 43 -45 98 -60 166s-24 132 -28 192s-6 131 -6 212c0 187 5 401 14 644c3 49 8 78 16 86s22 12 42 12zM290 1518c-75 0 -102 32 -102 120
c0 59 46 106 102 106c24 0 46 -11 66 -32s30 -45 30 -72c0 -69 -45 -122 -96 -122zM674 1634c0 -80 -37 -110 -120 -110c-45 0 -90 45 -90 120c0 21 10 41 30 59s41 27 64 27c61 0 116 -37 116 -96z" />
    <glyph glyph-name="Yacute" unicode="&#xdd;" horiz-adv-x="906" 
d="M150 1422h110c32 -3 47 0 57 -12c4 -8 4 -5 8 -17c2 -6 3 -10 3 -11c0 -3 5 -27 8 -32c16 -68 65 -231 148 -488l48 174c31 116 51 205 62 266c4 24 8 44 12 60c3 8 6 29 7 33c1 2 2 6 3 11c3 11 5 10 8 17c8 12 24 14 58 17c88 5 150 8 186 8c16 0 24 -5 24 -14
c0 -5 -3 -18 -10 -38c-188 -555 -282 -883 -282 -986c0 -17 0 -62 1 -135s1 -142 1 -207c0 -32 -3 -51 -8 -58s-20 -10 -44 -10h-74h-96c-59 0 -68 6 -68 46c0 51 2 127 7 230s7 181 7 234c0 8 -13 60 -40 156s-63 213 -108 352s-87 254 -126 346c-9 24 -14 38 -14 42
c0 12 11 18 34 18c4 0 15 0 33 -1s33 -1 45 -1zM578 1520h-4c-117 0 -176 3 -176 10c0 4 3 11 8 20c12 23 30 58 55 105s42 81 53 101c13 22 8 38 42 36c24 0 61 -2 112 -6s76 -9 76 -14l-14 -24c-56 -88 -98 -155 -126 -200c-16 -24 -14 -28 -26 -28z" />
    <glyph glyph-name="Thorn" unicode="&#xde;" horiz-adv-x="796" 
d="M62 1056c0 36 0 91 -1 166s-1 131 -1 170c0 29 7 46 20 50c4 1 17 3 40 6c29 4 69 6 120 6c28 0 45 -3 51 -8s9 -21 9 -48c3 -117 4 -191 4 -220c0 -35 1 -52 4 -52c91 0 186 -24 281 -72s161 -145 161 -270c0 -88 -22 -163 -53 -214s-89 -96 -136 -120
c-23 -12 -53 -24 -90 -35s-67 -20 -91 -25s-56 -11 -96 -18v-64c0 -23 0 -61 1 -114s1 -92 1 -116c0 -45 -10 -52 -42 -52c-13 0 -39 -1 -78 -3s-64 -3 -76 -3c-33 5 -32 5 -32 54v6c0 104 1 265 2 484s2 383 2 492zM514 768c0 40 -13 74 -40 102s-61 42 -104 42h-30
c-28 0 -42 -9 -42 -28c0 -128 3 -215 8 -262c1 -13 10 -20 26 -20c5 0 24 2 32 2c104 0 150 68 150 164z" />
    <glyph glyph-name="germandbls" unicode="&#xdf;" horiz-adv-x="1438" 
d="M1244 1206h-100c-53 0 -83 -1 -118 -36c-17 -17 -26 -42 -26 -74c0 -45 22 -95 66 -150c21 -27 55 -62 100 -107s82 -83 111 -114s55 -73 80 -124s37 -106 37 -163c0 -124 -31 -233 -92 -328s-145 -142 -252 -142c-89 0 -180 49 -272 146c-19 19 -28 33 -28 42
c0 21 17 64 52 128c25 49 43 74 54 74c8 0 21 -7 38 -20c5 -3 35 -28 48 -37c7 -5 15 -10 26 -17c21 -13 41 -18 60 -18c64 0 120 45 120 128c0 51 -26 95 -73 147c-23 26 -38 44 -43 53c-23 33 -63 82 -120 145s-100 122 -129 177s-43 119 -43 192c0 103 38 188 113 256
s165 102 269 102c31 0 66 -3 106 -10c36 -7 57 -13 64 -20c7 -8 11 -25 14 -52c7 -49 10 -94 10 -134c0 -29 -24 -44 -72 -44zM536 1180c-8 0 -24 2 -47 7s-40 7 -51 7c-72 0 -108 -46 -108 -138c0 -112 123 -209 217 -315c65 -73 119 -184 119 -309
c0 -275 -107 -419 -320 -432h-12c-77 0 -164 59 -260 176c-19 24 -28 47 -28 68c0 13 6 27 18 42c24 24 43 41 56 52c28 24 44 36 48 36c8 0 23 -9 44 -26c19 -13 50 -43 67 -56s42 -28 61 -28c55 0 82 45 82 136c0 21 -3 41 -8 58c-15 57 -43 113 -84 166s-82 97 -121 132
s-75 81 -107 138s-48 120 -48 188c0 105 35 194 105 265s159 107 267 107c16 0 50 -8 102 -23s78 -32 78 -49c0 -12 -1 -22 -4 -30c-16 -53 -27 -93 -34 -120c-12 -37 -8 -52 -32 -52z" />
    <glyph glyph-name="agrave" unicode="&#xe0;" horiz-adv-x="942" 
d="M878 -2h-216c-24 0 -20 21 -20 36c-4 29 -12 95 -23 196s-22 176 -33 224c-8 20 -35 30 -82 30c-85 0 -134 -6 -146 -18c-13 -13 -24 -50 -33 -130c-5 -40 -8 -71 -10 -94s-5 -61 -10 -116s-7 -86 -7 -94c-3 -27 -8 -34 -32 -34c-9 0 -26 0 -50 1s-44 1 -60 1
c-22 0 -82 -2 -98 -2c-20 0 -30 5 -30 14c0 8 5 39 14 92c141 863 213 1299 214 1310s3 19 6 26c5 13 21 24 48 24c73 0 171 -4 294 -12c37 -3 55 -14 59 -22c2 -4 4 -13 7 -26l232 -1354c3 -19 4 -30 4 -34c0 -12 -9 -18 -28 -18zM366 770v-6c0 -21 24 -32 72 -32
c29 0 47 -4 74 -4c31 0 46 7 46 20c0 31 -8 90 -24 179s-32 165 -48 229c-8 24 3 32 -34 32c-21 2 -20 -17 -24 -38c-39 -227 -59 -353 -62 -380zM224 1750c-11 17 -16 27 -16 30c0 5 13 8 40 8c20 1 48 3 85 5s64 3 81 3c13 0 21 -3 24 -7s7 -18 10 -23
c28 -75 52 -137 72 -186c11 -24 16 -37 16 -40c0 -11 -11 -16 -32 -16h-116c-47 -1 -43 6 -58 28c-9 16 -26 47 -49 93s-42 81 -57 105z" />
    <glyph glyph-name="aacute" unicode="&#xe1;" horiz-adv-x="942" 
d="M878 -2h-216c-24 0 -20 21 -20 36c-4 29 -12 95 -23 196s-22 176 -33 224c-8 20 -35 30 -82 30c-85 0 -134 -6 -146 -18c-13 -13 -24 -50 -33 -130c-5 -40 -8 -71 -10 -94s-5 -61 -10 -116s-7 -86 -7 -94c-3 -27 -8 -34 -32 -34c-9 0 -26 0 -50 1s-44 1 -60 1
c-22 0 -82 -2 -98 -2c-20 0 -30 5 -30 14c0 8 5 39 14 92c141 863 213 1299 214 1310s3 19 6 26c5 13 21 24 48 24c73 0 171 -4 294 -12c37 -3 55 -14 59 -22c2 -4 4 -13 7 -26l232 -1354c3 -19 4 -30 4 -34c0 -12 -9 -18 -28 -18zM366 770v-6c0 -21 24 -32 72 -32
c29 0 47 -4 74 -4c31 0 46 7 46 20c0 31 -8 90 -24 179s-32 165 -48 229c-8 24 3 32 -34 32c-21 2 -20 -17 -24 -38c-39 -227 -59 -353 -62 -380zM548 1518h-4c-117 0 -176 3 -176 10c0 4 3 11 8 20c12 23 30 58 55 105s42 81 53 101c13 22 8 38 42 36c24 0 61 -2 112 -6
s76 -9 76 -14l-14 -24c-56 -88 -98 -155 -126 -200c-16 -24 -14 -28 -26 -28z" />
    <glyph glyph-name="acircumflex" unicode="&#xe2;" horiz-adv-x="942" 
d="M878 -2h-216c-24 0 -20 21 -20 36c-4 29 -12 95 -23 196s-22 176 -33 224c-8 20 -35 30 -82 30c-85 0 -134 -6 -146 -18c-13 -13 -24 -50 -33 -130c-5 -40 -8 -71 -10 -94s-5 -61 -10 -116s-7 -86 -7 -94c-3 -27 -8 -34 -32 -34c-9 0 -26 0 -50 1s-44 1 -60 1
c-22 0 -82 -2 -98 -2c-20 0 -30 5 -30 14c0 8 5 39 14 92c141 863 213 1299 214 1310s3 19 6 26c5 13 21 24 48 24c73 0 171 -4 294 -12c37 -3 55 -14 59 -22c2 -4 4 -13 7 -26l232 -1354c3 -19 4 -30 4 -34c0 -12 -9 -18 -28 -18zM366 770v-6c0 -21 24 -32 72 -32
c29 0 47 -4 74 -4c31 0 46 7 46 20c0 31 -8 90 -24 179s-32 165 -48 229c-8 24 3 32 -34 32c-21 2 -20 -17 -24 -38c-39 -227 -59 -353 -62 -380zM394 1832h138c35 0 46 -12 62 -52c45 -100 80 -183 104 -250l4 -16c0 -11 -13 -8 -73 -7c-30 1 -52 1 -67 1h-8
c-9 0 -15 2 -18 6c0 3 -1 5 -2 6c-8 15 -17 34 -26 59s-16 42 -20 51c-19 40 -25 37 -46 8c-4 -5 -21 -36 -52 -92c-13 -22 -13 -28 -46 -28h-128c-17 0 -26 3 -26 8c0 3 6 15 18 36c7 12 26 46 58 101s56 97 72 125c16 29 35 44 56 44z" />
    <glyph glyph-name="atilde" unicode="&#xe3;" horiz-adv-x="942" 
d="M878 -2h-216c-24 0 -20 21 -20 36c-4 29 -12 95 -23 196s-22 176 -33 224c-8 20 -35 30 -82 30c-85 0 -134 -6 -146 -18c-13 -13 -24 -50 -33 -130c-5 -40 -8 -71 -10 -94s-5 -61 -10 -116s-7 -86 -7 -94c-3 -27 -8 -34 -32 -34c-9 0 -26 0 -50 1s-44 1 -60 1
c-22 0 -82 -2 -98 -2c-20 0 -30 5 -30 14c0 8 5 39 14 92c141 863 213 1299 214 1310s3 19 6 26c5 13 21 24 48 24c73 0 171 -4 294 -12c37 -3 55 -14 59 -22c2 -4 4 -13 7 -26l232 -1354c3 -19 4 -30 4 -34c0 -12 -9 -18 -28 -18zM366 770v-6c0 -21 24 -32 72 -32
c29 0 47 -4 74 -4c31 0 46 7 46 20c0 31 -8 90 -24 179s-32 165 -48 229c-8 24 3 32 -34 32c-21 2 -20 -17 -24 -38c-39 -227 -59 -353 -62 -380zM246 1538h-26h-36c-11 3 -16 11 -16 26c0 192 60 278 220 278c32 0 59 -13 81 -38s43 -50 63 -75s42 -37 66 -37
c47 0 81 30 104 90c4 11 8 16 12 16c12 0 28 -4 48 -12s30 -15 30 -20c0 -23 -1 -39 -4 -50c-12 -53 -36 -100 -72 -139s-75 -59 -116 -59c-101 -5 -176 140 -214 134c-39 1 -71 -7 -100 -82c-7 -21 -20 -32 -40 -32z" />
    <glyph glyph-name="adieresis" unicode="&#xe4;" horiz-adv-x="942" 
d="M878 -2h-216c-24 0 -20 21 -20 36c-4 29 -12 95 -23 196s-22 176 -33 224c-8 20 -35 30 -82 30c-85 0 -134 -6 -146 -18c-13 -13 -24 -50 -33 -130c-5 -40 -8 -71 -10 -94s-5 -61 -10 -116s-7 -86 -7 -94c-3 -27 -8 -34 -32 -34c-9 0 -26 0 -50 1s-44 1 -60 1
c-22 0 -82 -2 -98 -2c-20 0 -30 5 -30 14c0 8 5 39 14 92c141 863 213 1299 214 1310s3 19 6 26c5 13 21 24 48 24c73 0 171 -4 294 -12c37 -3 55 -14 59 -22c2 -4 4 -13 7 -26l232 -1354c3 -19 4 -30 4 -34c0 -12 -9 -18 -28 -18zM366 770v-6c0 -21 24 -32 72 -32
c29 0 47 -4 74 -4c31 0 46 7 46 20c0 31 -8 90 -24 179s-32 165 -48 229c-8 24 3 32 -34 32c-21 2 -20 -17 -24 -38c-39 -227 -59 -353 -62 -380zM328 1518c-75 0 -102 32 -102 120c0 59 46 106 102 106c24 0 46 -11 66 -32s30 -45 30 -72c0 -69 -45 -122 -96 -122z
M712 1634c0 -80 -37 -110 -120 -110c-45 0 -90 45 -90 120c0 21 10 41 30 59s41 27 64 27c61 0 116 -37 116 -96z" />
    <glyph glyph-name="aring" unicode="&#xe5;" horiz-adv-x="942" 
d="M456 1540c53 0 96 35 96 94c0 53 -47 86 -92 86c-51 0 -92 -39 -92 -92s37 -88 88 -88zM366 770v-6c0 -21 24 -32 72 -32c29 0 47 -4 74 -4c31 0 46 7 46 20c0 31 -8 90 -24 179s-32 165 -48 229c-8 24 3 32 -34 32c-21 2 -20 -17 -24 -38c-39 -227 -59 -353 -62 -380z
M878 -2h-216c-24 0 -20 21 -20 36c-4 29 -12 95 -23 196s-22 176 -33 224c-8 20 -35 30 -82 30c-85 0 -134 -6 -146 -18c-13 -13 -24 -50 -33 -130c-5 -40 -8 -71 -10 -94s-5 -61 -10 -116s-7 -86 -7 -94c-3 -27 -8 -34 -32 -34c-9 0 -26 0 -50 1s-44 1 -60 1
c-22 0 -82 -2 -98 -2c-20 0 -30 5 -30 14c0 8 5 39 14 92c141 863 213 1299 214 1310c5 29 17 46 36 50c-41 41 -62 90 -62 146c0 68 19 126 57 175s91 73 159 73c155 0 248 -75 248 -222c0 -76 -28 -138 -84 -186c54 -9 52 -10 60 -46l232 -1354c3 -19 4 -30 4 -34
c0 -12 -9 -18 -28 -18z" />
    <glyph glyph-name="ae" unicode="&#xe6;" horiz-adv-x="1076" 
d="M370 770v-6c0 -21 24 -32 72 -32c27 0 45 -4 72 -4c1 100 2 254 2 462c-7 0 -41 -2 -60 -2c-21 2 -20 -17 -24 -38c-39 -227 -59 -353 -62 -380zM1014 1410v-14c0 -25 1 -61 3 -106s3 -80 3 -104c0 -20 -14 -30 -42 -30h-22c-20 0 -90 2 -112 2c-40 0 -60 -11 -60 -32
c0 -19 -1 -66 -2 -142s-2 -124 -2 -144c0 -15 14 -22 42 -22c17 0 46 1 86 4s68 4 84 4c12 0 14 -8 17 -20c1 -5 1 -23 1 -28l6 -120c0 -19 1 -27 -11 -31s-12 -2 -39 -5h-26h-50h-100c-5 0 -9 -3 -10 -9s-2 -26 -2 -59v-238c0 -16 16 -24 48 -24c43 0 114 -4 162 -4
c21 0 32 -11 32 -34c0 -93 -1 -165 -2 -214c0 -20 -2 -26 -11 -30c-3 -4 -19 -6 -33 -6c-49 -5 -106 -8 -170 -8c-27 0 -67 1 -122 2s-96 2 -124 2c-45 0 -50 6 -50 38c0 103 1 251 4 446h-4c-85 0 -134 -6 -146 -18c-13 -13 -24 -50 -33 -130c-5 -40 -8 -71 -10 -94
s-5 -61 -10 -116s-7 -86 -7 -94c-3 -27 -8 -34 -32 -34c-9 0 -26 0 -49 1s-43 1 -59 1c-25 0 -84 -2 -100 -2c-20 0 -30 5 -30 14c0 4 5 36 16 96c115 699 185 1134 212 1306c4 29 12 50 54 50c83 0 198 -4 345 -12s252 -13 313 -14c40 -3 42 -4 42 -28z" />
    <glyph glyph-name="ccedilla" unicode="&#xe7;" horiz-adv-x="824" 
d="M628 8c-4 -11 -6 -23 -6 -36c0 -15 8 -12 28 -32c16 -15 31 -36 44 -65s20 -55 20 -79c0 -147 -78 -198 -214 -198c-41 0 -69 1 -84 2c-29 0 -40 -4 -40 20v2c0 65 6 98 18 98h28c16 0 51 -2 62 -2c43 0 64 32 64 96c0 41 -29 73 -86 94c-17 7 -26 13 -26 20
c0 1 2 9 5 22s6 22 7 26c2 5 10 53 12 62c-127 43 -228 124 -303 244s-113 271 -113 454c0 220 62 392 185 517s294 187 513 187c20 0 30 -11 30 -32v-26c0 -8 0 -26 -1 -54s-1 -49 -1 -62c0 -38 -5 -52 -20 -56c-11 -3 -8 -4 -25 -5c-9 -1 -15 -1 -19 -1
c-252 -24 -378 -168 -378 -432c0 -137 32 -252 96 -343s145 -150 244 -177c13 -3 47 -12 52 -13c3 -1 7 -4 12 -9c11 -11 11 -23 14 -52c3 -40 12 -88 12 -128c0 -37 -11 -44 -54 -44h-48c-5 0 -23 2 -28 2z" />
    <glyph glyph-name="egrave" unicode="&#xe8;" horiz-adv-x="622" 
d="M562 1410v-14c0 -25 1 -57 2 -95s2 -69 2 -93c0 -20 -14 -30 -42 -30h-22c-12 0 -32 0 -60 1s-49 1 -62 1c-40 0 -60 -11 -60 -32c0 -19 -1 -62 -2 -129s-2 -111 -2 -131c0 -15 14 -22 42 -22c17 0 48 1 91 4s73 4 89 4c12 0 14 -8 17 -20c1 -5 1 -23 1 -28
c4 -80 6 -141 6 -184c0 -29 -9 -34 -38 -34h-12c-17 -1 -46 -2 -86 -2h-100c-5 0 -9 -3 -10 -9s-2 -25 -2 -57v-248c0 -16 16 -24 48 -24c21 0 49 0 84 -1s64 -1 88 -1c21 0 32 -11 32 -34v-126v-66c0 -20 -2 -26 -11 -30c-4 -4 -19 -6 -33 -6c-49 -5 -107 -8 -172 -8
c-27 0 -67 1 -121 2s-95 2 -123 2c-45 0 -50 6 -50 38c0 145 1 356 3 631s3 488 3 639v54c0 35 2 56 7 64s15 12 31 12c20 0 47 1 80 2s59 2 78 2c61 0 148 -1 260 -4c40 -3 44 -7 44 -28zM74 1744c-11 17 -16 27 -16 30c0 5 13 8 40 8c20 1 48 3 85 5s64 3 81 3
c13 0 21 -3 24 -7s7 -18 10 -23c28 -75 52 -137 72 -186c11 -24 16 -37 16 -40c0 -11 -11 -16 -32 -16h-116c-47 -1 -43 6 -58 28c-9 16 -26 47 -49 93s-42 81 -57 105z" />
    <glyph glyph-name="eacute" unicode="&#xe9;" horiz-adv-x="622" 
d="M562 1410v-14c0 -25 1 -57 2 -95s2 -69 2 -93c0 -20 -14 -30 -42 -30h-22c-12 0 -32 0 -60 1s-49 1 -62 1c-40 0 -60 -11 -60 -32c0 -19 -1 -62 -2 -129s-2 -111 -2 -131c0 -15 14 -22 42 -22c17 0 48 1 91 4s73 4 89 4c12 0 14 -8 17 -20c1 -5 1 -23 1 -28
c4 -80 6 -141 6 -184c0 -29 -9 -34 -38 -34h-12c-17 -1 -46 -2 -86 -2h-100c-5 0 -9 -3 -10 -9s-2 -25 -2 -57v-248c0 -16 16 -24 48 -24c21 0 49 0 84 -1s64 -1 88 -1c21 0 32 -11 32 -34v-126v-66c0 -20 -2 -26 -11 -30c-4 -4 -19 -6 -33 -6c-49 -5 -107 -8 -172 -8
c-27 0 -67 1 -121 2s-95 2 -123 2c-45 0 -50 6 -50 38c0 145 1 356 3 631s3 488 3 639v54c0 35 2 56 7 64s15 12 31 12c20 0 47 1 80 2s59 2 78 2c61 0 148 -1 260 -4c40 -3 44 -7 44 -28zM404 1518h-4c-117 0 -176 3 -176 10c0 4 3 11 8 20c12 23 30 58 55 105
s42 81 53 101c13 22 8 38 42 36c24 0 61 -2 112 -6s76 -9 76 -14l-14 -24c-56 -88 -98 -155 -126 -200c-16 -24 -14 -28 -26 -28z" />
    <glyph glyph-name="ecircumflex" unicode="&#xea;" horiz-adv-x="622" 
d="M562 1410v-14c0 -25 1 -57 2 -95s2 -69 2 -93c0 -20 -14 -30 -42 -30h-22c-12 0 -32 0 -60 1s-49 1 -62 1c-40 0 -60 -11 -60 -32c0 -19 -1 -62 -2 -129s-2 -111 -2 -131c0 -15 14 -22 42 -22c17 0 48 1 91 4s73 4 89 4c12 0 14 -8 17 -20c1 -5 1 -23 1 -28
c4 -80 6 -141 6 -184c0 -29 -9 -34 -38 -34h-12c-17 -1 -46 -2 -86 -2h-100c-5 0 -9 -3 -10 -9s-2 -25 -2 -57v-248c0 -16 16 -24 48 -24c21 0 49 0 84 -1s64 -1 88 -1c21 0 32 -11 32 -34v-126v-66c0 -20 -2 -26 -11 -30c-4 -4 -19 -6 -33 -6c-49 -5 -107 -8 -172 -8
c-27 0 -67 1 -121 2s-95 2 -123 2c-45 0 -50 6 -50 38c0 145 1 356 3 631s3 488 3 639v54c0 35 2 56 7 64s15 12 31 12c20 0 47 1 80 2s59 2 78 2c61 0 148 -1 260 -4c40 -3 44 -7 44 -28zM262 1832h138c35 0 46 -12 62 -52c45 -100 80 -183 104 -250l4 -16
c0 -11 -13 -8 -73 -7c-30 1 -52 1 -67 1h-8c-9 0 -15 2 -18 6c0 3 -1 5 -2 6c-8 15 -17 34 -26 59s-16 42 -20 51c-19 40 -25 37 -46 8c-4 -5 -21 -36 -52 -92c-13 -22 -13 -28 -46 -28h-128c-17 0 -26 3 -26 8c0 3 6 15 18 36c7 12 26 46 58 101s56 97 72 125
c16 29 35 44 56 44z" />
    <glyph glyph-name="edieresis" unicode="&#xeb;" horiz-adv-x="622" 
d="M562 1410v-14c0 -25 1 -57 2 -95s2 -69 2 -93c0 -20 -14 -30 -42 -30h-22c-12 0 -32 0 -60 1s-49 1 -62 1c-40 0 -60 -11 -60 -32c0 -19 -1 -62 -2 -129s-2 -111 -2 -131c0 -15 14 -22 42 -22c17 0 48 1 91 4s73 4 89 4c12 0 14 -8 17 -20c1 -5 1 -23 1 -28
c4 -80 6 -141 6 -184c0 -29 -9 -34 -38 -34h-12c-17 -1 -46 -2 -86 -2h-100c-5 0 -9 -3 -10 -9s-2 -25 -2 -57v-248c0 -16 16 -24 48 -24c21 0 49 0 84 -1s64 -1 88 -1c21 0 32 -11 32 -34v-126v-66c0 -20 -2 -26 -11 -30c-4 -4 -19 -6 -33 -6c-49 -5 -107 -8 -172 -8
c-27 0 -67 1 -121 2s-95 2 -123 2c-45 0 -50 6 -50 38c0 145 1 356 3 631s3 488 3 639v54c0 35 2 56 7 64s15 12 31 12c20 0 47 1 80 2s59 2 78 2c61 0 148 -1 260 -4c40 -3 44 -7 44 -28zM164 1520c-75 0 -102 32 -102 120c0 59 46 106 102 106c24 0 46 -11 66 -32
s30 -45 30 -72c0 -69 -45 -122 -96 -122zM548 1636c0 -80 -37 -110 -120 -110c-45 0 -90 45 -90 120c0 21 10 41 30 59s41 27 64 27c61 0 116 -37 116 -96z" />
    <glyph glyph-name="igrave" unicode="&#xec;" horiz-adv-x="360" 
d="M240 1442c27 0 43 -4 50 -12s10 -28 10 -60c0 -144 -1 -363 -3 -656s-3 -511 -3 -654c3 -29 -5 -42 -9 -50c-1 -5 -18 -6 -22 -7s-30 -1 -41 -1s-35 -2 -46 -2h-68c-43 0 -50 21 -50 88c0 111 1 273 3 487s3 374 3 481c0 31 0 81 -1 152s-1 123 -1 156s3 54 8 62
s18 12 38 12c13 0 35 1 66 2s53 2 66 2zM-34 1750c-11 17 -16 27 -16 30c0 5 13 8 40 8c20 1 48 3 85 5s64 3 81 3c13 0 21 -3 24 -7s7 -18 10 -23c28 -75 52 -137 72 -186c11 -24 16 -37 16 -40c0 -11 -11 -16 -32 -16h-116c-47 -1 -43 6 -58 28c-9 16 -26 47 -49 93
s-42 81 -57 105z" />
    <glyph glyph-name="iacute" unicode="&#xed;" horiz-adv-x="360" 
d="M240 1442c27 0 43 -4 50 -12s10 -28 10 -60c0 -144 -1 -363 -3 -656s-3 -511 -3 -654c3 -29 -5 -42 -9 -50c-1 -5 -18 -6 -22 -7s-30 -1 -41 -1s-35 -2 -46 -2h-68c-43 0 -50 21 -50 88c0 111 1 273 3 487s3 374 3 481c0 31 0 81 -1 152s-1 123 -1 156s3 54 8 62
s18 12 38 12c13 0 35 1 66 2s53 2 66 2zM266 1518h-4c-117 0 -176 3 -176 10c0 4 3 11 8 20c12 23 30 58 55 105s42 81 53 101c13 22 8 38 42 36c24 0 61 -2 112 -6s76 -9 76 -14l-14 -24c-56 -88 -98 -155 -126 -200c-16 -24 -14 -28 -26 -28z" />
    <glyph glyph-name="icircumflex" unicode="&#xee;" horiz-adv-x="360" 
d="M240 1442c27 0 43 -4 50 -12s10 -28 10 -60c0 -144 -1 -363 -3 -656s-3 -511 -3 -654c3 -29 -5 -42 -9 -50c-1 -5 -18 -6 -22 -7s-30 -1 -41 -1s-35 -2 -46 -2h-68c-43 0 -50 21 -50 88c0 111 1 273 3 487s3 374 3 481c0 31 0 81 -1 152s-1 123 -1 156s3 54 8 62
s18 12 38 12c13 0 35 1 66 2s53 2 66 2zM142 1838h138c35 0 46 -12 62 -52c45 -100 80 -183 104 -250l4 -16c0 -11 -13 -8 -73 -7c-30 1 -52 1 -67 1h-8c-9 0 -15 2 -18 6c0 3 -1 5 -2 6c-8 15 -17 34 -26 59s-16 42 -20 51c-19 40 -25 37 -46 8c-4 -5 -21 -36 -52 -92
c-13 -22 -13 -28 -46 -28h-128c-17 0 -26 3 -26 8c0 3 6 15 18 36c7 12 26 46 58 101s56 97 72 125c16 29 35 44 56 44z" />
    <glyph glyph-name="idieresis" unicode="&#xef;" horiz-adv-x="360" 
d="M240 1442c27 0 43 -4 50 -12s10 -28 10 -60c0 -144 -1 -363 -3 -656s-3 -511 -3 -654c3 -29 -5 -42 -9 -50c-1 -5 -18 -6 -22 -7s-30 -1 -41 -1s-35 -2 -46 -2h-68c-43 0 -50 21 -50 88c0 111 1 273 3 487s3 374 3 481c0 31 0 81 -1 152s-1 123 -1 156s3 54 8 62
s18 12 38 12c13 0 35 1 66 2s53 2 66 2zM50 1512c-75 0 -102 32 -102 120c0 59 46 106 102 106c24 0 46 -11 66 -32s30 -45 30 -72c0 -69 -45 -122 -96 -122zM434 1628c0 -80 -37 -110 -120 -110c-45 0 -90 45 -90 120c0 21 10 41 30 59s41 27 64 27c61 0 116 -37 116 -96z
" />
    <glyph glyph-name="eth" unicode="&#xf0;" horiz-adv-x="1096" 
d="M92 856h60c3 195 7 355 14 482c3 49 9 80 18 91s30 17 62 17c111 0 205 -5 284 -16s153 -30 222 -59s125 -68 166 -118c83 -100 134 -261 134 -485c0 -131 -32 -256 -96 -377s-150 -218 -258 -292s-222 -111 -342 -111c-41 0 -78 3 -110 8c-48 8 -78 20 -91 35
s-19 46 -19 93c0 68 2 164 6 288s7 201 8 230h-50c-43 0 -46 2 -46 34v18c0 15 0 37 -1 67s-1 52 -1 65c0 27 3 30 40 30zM410 640c-3 -149 -4 -249 -4 -298c0 -24 9 -36 28 -36c92 0 170 51 235 153s97 218 97 347c0 112 -26 204 -78 277s-123 109 -212 109
c-27 0 -41 -11 -42 -34c-8 -75 -14 -173 -18 -296c18 0 75 2 90 2c17 0 26 -13 26 -38c0 -7 0 -28 -1 -65s-1 -60 -1 -69c0 -30 -2 -45 -13 -47c-9 -1 -7 -3 -23 -3h-18c-13 0 -47 -2 -66 -2z" />
    <glyph glyph-name="ntilde" unicode="&#xf1;" horiz-adv-x="880" 
d="M278 96c-3 -75 -15 -96 -74 -96h-110c-37 0 -42 5 -42 56c0 108 1 183 2 224c8 288 12 666 12 1134c4 34 1 30 30 34c36 4 74 6 114 6h70c20 0 32 -1 37 -4s10 -12 15 -28c63 -212 123 -417 182 -614l58 -186l4 202c0 21 3 103 9 246s9 245 9 308c0 36 15 54 46 54
c68 0 117 -1 148 -2c35 -3 42 -9 42 -30c0 -5 -2 -21 -2 -32c-5 -257 -8 -535 -8 -834c0 -44 0 -118 1 -223s1 -183 1 -235c0 -51 -11 -62 -64 -62c-40 0 -85 1 -136 4c-36 0 -55 2 -63 17c-7 12 -9 13 -17 37c-4 12 -7 22 -10 30c-36 100 -78 225 -125 376
s-84 262 -109 334l-4 -218c-1 -88 -4 -176 -8 -264s-7 -166 -8 -234zM236 1534h-26h-36c-11 3 -16 11 -16 26c0 192 60 278 220 278c32 0 59 -13 81 -38s43 -50 63 -75s42 -37 66 -37c47 0 81 30 104 90c4 11 8 16 12 16c12 0 28 -4 48 -12s30 -15 30 -20
c0 -23 -1 -39 -4 -50c-12 -53 -36 -100 -72 -139s-75 -59 -116 -59c-101 -5 -176 140 -214 134c-39 1 -71 -7 -100 -82c-7 -21 -20 -32 -40 -32z" />
    <glyph glyph-name="ograve" unicode="&#xf2;" 
d="M1068 776c0 -264 -41 -463 -124 -597s-227 -201 -432 -201c-159 0 -278 64 -357 192s-119 299 -119 514c0 261 46 455 137 580s240 188 445 188c133 0 242 -66 325 -199s125 -292 125 -477zM838 696c0 88 -16 183 -49 282s-102 168 -187 168c-101 0 -181 -45 -238 -134
s-86 -195 -86 -316c0 -100 22 -194 67 -283s106 -133 185 -133c219 0 308 139 308 416zM372 1750c-11 17 -16 27 -16 30c0 5 13 8 40 8c20 1 48 3 85 5s64 3 81 3c13 0 21 -3 24 -7s7 -18 10 -23c28 -75 52 -137 72 -186c11 -24 16 -37 16 -40c0 -11 -11 -16 -32 -16h-116
c-47 -1 -43 6 -58 28c-9 16 -26 47 -49 93s-42 81 -57 105z" />
    <glyph glyph-name="oacute" unicode="&#xf3;" 
d="M1068 776c0 -264 -41 -463 -124 -597s-227 -201 -432 -201c-159 0 -278 64 -357 192s-119 299 -119 514c0 261 46 455 137 580s240 188 445 188c133 0 242 -66 325 -199s125 -292 125 -477zM838 696c0 88 -16 183 -49 282s-102 168 -187 168c-101 0 -181 -45 -238 -134
s-86 -195 -86 -316c0 -100 22 -194 67 -283s106 -133 185 -133c219 0 308 139 308 416zM696 1524h-4c-117 0 -176 3 -176 10c0 4 3 11 8 20c12 23 30 58 55 105s42 81 53 101c13 22 8 38 42 36c24 0 61 -2 112 -6s76 -9 76 -14l-14 -24c-56 -88 -98 -155 -126 -200
c-16 -24 -14 -28 -26 -28z" />
    <glyph glyph-name="ocircumflex" unicode="&#xf4;" 
d="M1068 776c0 -264 -41 -463 -124 -597s-227 -201 -432 -201c-159 0 -278 64 -357 192s-119 299 -119 514c0 261 46 455 137 580s240 188 445 188c133 0 242 -66 325 -199s125 -292 125 -477zM838 696c0 88 -16 183 -49 282s-102 168 -187 168c-101 0 -181 -45 -238 -134
s-86 -195 -86 -316c0 -100 22 -194 67 -283s106 -133 185 -133c219 0 308 139 308 416zM518 1844h138c35 0 46 -12 62 -52c45 -100 80 -183 104 -250l4 -16c0 -11 -13 -8 -73 -7c-30 1 -52 1 -67 1h-8c-9 0 -15 2 -18 6c0 3 -1 5 -2 6c-8 15 -17 34 -26 59s-16 42 -20 51
c-19 40 -25 37 -46 8c-4 -5 -21 -36 -52 -92c-13 -22 -13 -28 -46 -28h-128c-17 0 -26 3 -26 8c0 3 6 15 18 36c7 12 26 46 58 101s56 97 72 125c16 29 35 44 56 44z" />
    <glyph glyph-name="otilde" unicode="&#xf5;" 
d="M1068 776c0 -264 -41 -463 -124 -597s-227 -201 -432 -201c-159 0 -278 64 -357 192s-119 299 -119 514c0 261 46 455 137 580s240 188 445 188c133 0 242 -66 325 -199s125 -292 125 -477zM838 696c0 88 -16 183 -49 282s-102 168 -187 168c-101 0 -181 -45 -238 -134
s-86 -195 -86 -316c0 -100 22 -194 67 -283s106 -133 185 -133c219 0 308 139 308 416zM356 1532h-26h-36c-11 3 -16 11 -16 26c0 192 60 278 220 278c32 0 59 -13 81 -38s43 -50 63 -75s42 -37 66 -37c47 0 81 30 104 90c4 11 8 16 12 16c12 0 28 -4 48 -12s30 -15 30 -20
c0 -23 -1 -39 -4 -50c-12 -53 -36 -100 -72 -139s-75 -59 -116 -59c-101 -5 -176 140 -214 134c-39 1 -71 -7 -100 -82c-7 -21 -20 -32 -40 -32z" />
    <glyph glyph-name="odieresis" unicode="&#xf6;" 
d="M1068 776c0 -264 -41 -463 -124 -597s-227 -201 -432 -201c-159 0 -278 64 -357 192s-119 299 -119 514c0 261 46 455 137 580s240 188 445 188c133 0 242 -66 325 -199s125 -292 125 -477zM838 696c0 88 -16 183 -49 282s-102 168 -187 168c-101 0 -181 -45 -238 -134
s-86 -195 -86 -316c0 -100 22 -194 67 -283s106 -133 185 -133c219 0 308 139 308 416zM432 1532c-75 0 -102 32 -102 120c0 59 46 106 102 106c24 0 46 -11 66 -32s30 -45 30 -72c0 -69 -45 -122 -96 -122zM816 1648c0 -80 -37 -110 -120 -110c-45 0 -90 45 -90 120
c0 21 10 41 30 59s41 27 64 27c61 0 116 -37 116 -96z" />
    <glyph glyph-name="divide" unicode="&#xf7;" horiz-adv-x="774" 
d="M398 426c33 0 62 -11 87 -32s37 -47 37 -78c0 -29 -14 -54 -41 -75s-57 -31 -89 -31c-25 0 -48 11 -69 32s-31 45 -31 70c0 61 45 114 106 114zM392 1048c32 0 60 -10 84 -30s36 -45 36 -76s-13 -55 -39 -74s-56 -28 -89 -28c-56 0 -102 43 -102 96c0 61 49 112 110 112z
M152 734c40 0 131 4 274 12s232 12 268 12c17 0 26 -13 26 -38c0 -7 0 -28 -1 -65s-1 -60 -1 -69c0 -30 -2 -45 -13 -47c-9 -1 -7 -3 -23 -3h-18c-13 0 -47 -2 -66 -2c-33 0 -115 -2 -245 -7s-214 -7 -253 -7c-29 0 -45 5 -48 14c-1 7 -2 16 -2 28v10c0 15 0 37 -1 67
s-1 52 -1 65c0 29 5 32 40 32c13 0 48 -2 64 -2z" />
    <glyph glyph-name="oslash" unicode="&#xf8;" 
d="M1068 776c0 -264 -41 -463 -124 -597s-227 -201 -432 -201c-27 0 -53 2 -78 6l-18 -44c-3 -11 -13 -17 -32 -18c-75 -5 -135 -8 -182 -8h-2c-23 0 -34 5 -34 16c0 4 3 14 8 30l50 126c-125 120 -188 319 -188 598c0 261 46 455 137 580s240 188 445 188
c44 0 86 -8 126 -24l12 30c8 25 33 38 76 38h6c55 0 95 -1 122 -4c16 -1 24 -5 24 -12c0 -5 -6 -25 -6 -28l-60 -162c100 -131 150 -302 150 -514zM796 960l-252 -680c208 5 294 144 294 416c0 92 -14 180 -42 264zM348 408l286 736c-7 1 -17 2 -32 2
c-101 0 -181 -45 -238 -134s-86 -195 -86 -316c0 -111 23 -207 70 -288z" />
    <glyph glyph-name="ugrave" unicode="&#xf9;" horiz-adv-x="862" 
d="M560 1192v202c0 21 8 32 24 32c64 0 131 -1 200 -4c20 0 30 -5 30 -14c0 -53 -2 -126 -6 -219s-6 -165 -6 -217c0 -99 -1 -184 -4 -256s-8 -149 -17 -231s-22 -151 -40 -207s-41 -108 -68 -157s-63 -85 -106 -109s-94 -36 -151 -36c-96 0 -171 37 -222 90
s-87 150 -107 237c-10 43 -18 97 -24 160s-10 121 -11 174s-2 116 -2 189c0 163 6 364 18 604c8 17 15 27 20 28c85 0 151 -4 196 -12c27 -5 28 -6 28 -30c0 -92 -3 -205 -9 -338s-9 -239 -9 -318c0 -303 45 -454 134 -454c47 0 81 59 103 177s33 255 33 411
c0 47 -1 104 -2 172s-2 110 -2 126zM218 1730c-11 17 -16 27 -16 30c0 5 13 8 40 8c20 1 48 3 85 5s64 3 81 3c13 0 21 -3 24 -7s7 -18 10 -23c28 -75 52 -137 72 -186c11 -24 16 -37 16 -40c0 -11 -11 -16 -32 -16h-116c-47 -1 -43 6 -58 28c-9 16 -26 47 -49 93
s-42 81 -57 105z" />
    <glyph glyph-name="uacute" unicode="&#xfa;" horiz-adv-x="862" 
d="M560 1192v202c0 21 8 32 24 32c64 0 131 -1 200 -4c20 0 30 -5 30 -14c0 -53 -2 -126 -6 -219s-6 -165 -6 -217c0 -99 -1 -184 -4 -256s-8 -149 -17 -231s-22 -151 -40 -207s-41 -108 -68 -157s-63 -85 -106 -109s-94 -36 -151 -36c-96 0 -171 37 -222 90
s-87 150 -107 237c-10 43 -18 97 -24 160s-10 121 -11 174s-2 116 -2 189c0 163 6 364 18 604c8 17 15 27 20 28c85 0 151 -4 196 -12c27 -5 28 -6 28 -30c0 -92 -3 -205 -9 -338s-9 -239 -9 -318c0 -303 45 -454 134 -454c47 0 81 59 103 177s33 255 33 411
c0 47 -1 104 -2 172s-2 110 -2 126zM530 1516h-4c-117 0 -176 3 -176 10c0 4 3 11 8 20c12 23 30 58 55 105s42 81 53 101c13 22 8 38 42 36c24 0 61 -2 112 -6s76 -9 76 -14l-14 -24c-56 -88 -98 -155 -126 -200c-16 -24 -14 -28 -26 -28z" />
    <glyph glyph-name="ucircumflex" unicode="&#xfb;" horiz-adv-x="862" 
d="M560 1192v202c0 21 8 32 24 32c64 0 131 -1 200 -4c20 0 30 -5 30 -14c0 -53 -2 -126 -6 -219s-6 -165 -6 -217c0 -99 -1 -184 -4 -256s-8 -149 -17 -231s-22 -151 -40 -207s-41 -108 -68 -157s-63 -85 -106 -109s-94 -36 -151 -36c-96 0 -171 37 -222 90
s-87 150 -107 237c-10 43 -18 97 -24 160s-10 121 -11 174s-2 116 -2 189c0 163 6 364 18 604c8 17 15 27 20 28c85 0 151 -4 196 -12c27 -5 28 -6 28 -30c0 -92 -3 -205 -9 -338s-9 -239 -9 -318c0 -303 45 -454 134 -454c47 0 81 59 103 177s33 255 33 411
c0 47 -1 104 -2 172s-2 110 -2 126zM406 1836h138c35 0 46 -12 62 -52c45 -100 80 -183 104 -250l4 -16c0 -11 -13 -8 -73 -7c-30 1 -52 1 -67 1h-8c-9 0 -15 2 -18 6c0 3 -1 5 -2 6c-8 15 -17 34 -26 59s-16 42 -20 51c-19 40 -25 37 -46 8c-4 -5 -21 -36 -52 -92
c-13 -22 -13 -28 -46 -28h-128c-17 0 -26 3 -26 8c0 3 6 15 18 36c7 12 26 46 58 101s56 97 72 125c16 29 35 44 56 44z" />
    <glyph glyph-name="udieresis" unicode="&#xfc;" horiz-adv-x="862" 
d="M560 1192v202c0 21 8 32 24 32c64 0 131 -1 200 -4c20 0 30 -5 30 -14c0 -53 -2 -126 -6 -219s-6 -165 -6 -217c0 -99 -1 -184 -4 -256s-8 -149 -17 -231s-22 -151 -40 -207s-41 -108 -68 -157s-63 -85 -106 -109s-94 -36 -151 -36c-96 0 -171 37 -222 90
s-87 150 -107 237c-10 43 -18 97 -24 160s-10 121 -11 174s-2 116 -2 189c0 163 6 364 18 604c8 17 15 27 20 28c85 0 151 -4 196 -12c27 -5 28 -6 28 -30c0 -92 -3 -205 -9 -338s-9 -239 -9 -318c0 -303 45 -454 134 -454c47 0 81 59 103 177s33 255 33 411
c0 47 -1 104 -2 172s-2 110 -2 126zM320 1512c-75 0 -102 32 -102 120c0 59 46 106 102 106c24 0 46 -11 66 -32s30 -45 30 -72c0 -69 -45 -122 -96 -122zM704 1628c0 -80 -37 -110 -120 -110c-45 0 -90 45 -90 120c0 21 10 41 30 59s41 27 64 27c61 0 116 -37 116 -96z" />
    <glyph glyph-name="yacute" unicode="&#xfd;" horiz-adv-x="788" 
d="M520 312c0 -27 0 -74 1 -142s1 -118 1 -150c0 -16 0 -18 -16 -18h-6c-40 -3 -74 -4 -102 -4c-43 0 -72 2 -104 2h-2c-9 0 -15 3 -17 10s-3 29 -3 68v6v478c0 60 -17 140 -50 240c-111 323 -175 509 -194 560c-7 17 -10 30 -10 38c0 13 16 20 48 20h58c19 0 44 0 75 -1
s55 -1 71 -1c11 0 19 -9 24 -26l104 -470c19 51 43 133 73 246s49 183 57 208c7 19 19 28 38 28h166c32 0 48 -4 48 -12c0 -4 -3 -16 -10 -36c-60 -188 -98 -303 -114 -344c-33 -83 -64 -177 -92 -284s-42 -181 -42 -222c0 -91 -2 -149 -2 -194zM524 1512h-4
c-117 0 -176 3 -176 10c0 4 3 11 8 20c12 23 30 58 55 105s42 81 53 101c13 22 8 38 42 36c24 0 61 -2 112 -6s76 -9 76 -14l-14 -24c-56 -88 -98 -155 -126 -200c-16 -24 -14 -28 -26 -28z" />
    <glyph glyph-name="thorn" unicode="&#xfe;" horiz-adv-x="780" 
d="M94 1444c29 4 71 6 124 6h34c5 0 11 2 14 2c27 0 27 -5 30 -42v-34c-1 -54 1 -201 2 -202c0 -3 40 -3 87 -6c23 -1 40 -3 49 -6c96 -28 170 -69 222 -122s78 -129 78 -226c0 -132 -40 -234 -121 -305s-185 -107 -313 -107v-74c0 -35 1 -85 2 -151s2 -115 2 -147
c0 -24 -6 -32 -38 -32c-47 0 -95 1 -146 4c-37 3 -44 11 -44 40c0 165 -4 401 -11 707s-12 522 -13 649v2c0 37 5 39 42 44zM490 790c0 60 -15 103 -44 130s-62 40 -98 40c-40 0 -60 -8 -60 -24c0 -29 1 -83 4 -160s4 -126 4 -146c0 -5 20 -8 60 -8c89 0 134 56 134 168z
" />
    <glyph glyph-name="ydieresis" unicode="&#xff;" horiz-adv-x="788" 
d="M520 312c0 -27 0 -74 1 -142s1 -118 1 -150c0 -16 0 -18 -16 -18h-6c-40 -3 -74 -4 -102 -4c-43 0 -72 2 -104 2h-2c-9 0 -15 3 -17 10s-3 29 -3 68v6v478c0 60 -17 140 -50 240c-111 323 -175 509 -194 560c-7 17 -10 30 -10 38c0 13 16 20 48 20h58c19 0 44 0 75 -1
s55 -1 71 -1c11 0 19 -9 24 -26l104 -470c19 51 43 133 73 246s49 183 57 208c7 19 19 28 38 28h166c32 0 48 -4 48 -12c0 -4 -3 -16 -10 -36c-60 -188 -98 -303 -114 -344c-33 -83 -64 -177 -92 -284s-42 -181 -42 -222c0 -91 -2 -149 -2 -194zM290 1512
c-75 0 -102 32 -102 120c0 59 46 106 102 106c24 0 46 -11 66 -32s30 -45 30 -72c0 -69 -45 -122 -96 -122zM674 1628c0 -80 -37 -110 -120 -110c-45 0 -90 45 -90 120c0 21 10 41 30 59s41 27 64 27c61 0 116 -37 116 -96z" />
    <glyph glyph-name="Amacron" unicode="&#x100;" horiz-adv-x="918" 
d="M552 658c0 13 -3 37 -10 70l-14 90c-8 60 -18 122 -30 185s-23 114 -34 151c-3 5 -5 24 -9 31s-10 17 -21 17c-5 0 -17 -27 -20 -40c-9 -59 -20 -135 -31 -229s-21 -166 -29 -217c0 -1 -1 -11 -2 -29s-2 -28 -2 -31c0 -11 15 -19 45 -24s55 -8 75 -8h4c52 0 78 11 78 34z
M894 106c5 -35 8 -53 8 -56c0 -23 -15 -34 -46 -34c-4 0 -15 0 -33 1s-33 1 -45 1h-74h-38c-32 0 -38 6 -46 54c-4 28 -10 79 -17 153s-13 125 -17 153v6c-5 23 -16 35 -32 36h-46c-44 -1 -91 -5 -142 -10c-27 -3 -32 -7 -40 -28c-8 -25 -15 -57 -20 -94
c-3 -19 -8 -53 -17 -103s-14 -88 -17 -115c0 -8 -4 -35 -5 -40c-1 -3 -2 -7 -4 -13c-4 -13 -19 -19 -47 -19c-5 0 -52 3 -140 8c-39 4 -58 17 -58 38c0 15 6 52 18 112c15 84 45 268 92 553s86 507 118 667c4 20 8 32 12 36s16 6 36 6h6c83 0 179 -3 290 -10
c25 -1 41 -5 47 -10s12 -19 19 -42c60 -245 139 -662 238 -1250zM626 1674c16 0 24 -16 24 -48v-2v-58c0 -24 -3 -39 -9 -44s-23 -8 -51 -8h-258c-23 0 -36 2 -41 7s-7 19 -7 43v72c0 24 8 36 24 36c32 0 86 0 161 1s128 1 157 1z" />
    <glyph glyph-name="amacron" unicode="&#x101;" horiz-adv-x="942" 
d="M878 -2h-216c-24 0 -20 21 -20 36c-4 29 -12 95 -23 196s-22 176 -33 224c-8 20 -35 30 -82 30c-85 0 -134 -6 -146 -18c-13 -13 -24 -50 -33 -130c-5 -40 -8 -71 -10 -94s-5 -61 -10 -116s-7 -86 -7 -94c-3 -27 -8 -34 -32 -34c-9 0 -26 0 -50 1s-44 1 -60 1
c-22 0 -82 -2 -98 -2c-20 0 -30 5 -30 14c0 8 5 39 14 92c141 863 213 1299 214 1310s3 19 6 26c5 13 21 24 48 24c73 0 171 -4 294 -12c37 -3 55 -14 59 -22c2 -4 4 -13 7 -26l232 -1354c3 -19 4 -30 4 -34c0 -12 -9 -18 -28 -18zM366 770v-6c0 -21 24 -32 72 -32
c29 0 47 -4 74 -4c31 0 46 7 46 20c0 31 -8 90 -24 179s-32 165 -48 229c-8 24 3 32 -34 32c-21 2 -20 -17 -24 -38c-39 -227 -59 -353 -62 -380zM620 1684c16 0 24 -16 24 -48v-2v-58c0 -24 -3 -39 -9 -44s-23 -8 -51 -8h-258c-23 0 -36 2 -41 7s-7 19 -7 43v72
c0 24 8 36 24 36c32 0 86 0 161 1s128 1 157 1z" />
    <glyph glyph-name="Abreve" unicode="&#x102;" horiz-adv-x="918" 
d="M552 658c0 13 -3 37 -10 70l-14 90c-8 60 -18 122 -30 185s-23 114 -34 151c-3 5 -5 24 -9 31s-10 17 -21 17c-5 0 -17 -27 -20 -40c-9 -59 -20 -135 -31 -229s-21 -166 -29 -217c0 -1 -1 -11 -2 -29s-2 -28 -2 -31c0 -11 15 -19 45 -24s55 -8 75 -8h4c52 0 78 11 78 34z
M894 106c5 -35 8 -53 8 -56c0 -23 -15 -34 -46 -34c-4 0 -15 0 -33 1s-33 1 -45 1h-74h-38c-32 0 -38 6 -46 54c-4 28 -10 79 -17 153s-13 125 -17 153v6c-5 23 -16 35 -32 36h-46c-44 -1 -91 -5 -142 -10c-27 -3 -32 -7 -40 -28c-8 -25 -15 -57 -20 -94
c-3 -19 -8 -53 -17 -103s-14 -88 -17 -115c0 -8 -4 -35 -5 -40c-1 -3 -2 -7 -4 -13c-4 -13 -19 -19 -47 -19c-5 0 -52 3 -140 8c-39 4 -58 17 -58 38c0 15 6 52 18 112c15 84 45 268 92 553s86 507 118 667c4 20 8 32 12 36s16 6 36 6h6c83 0 179 -3 290 -10
c25 -1 41 -5 47 -10s12 -19 19 -42c60 -245 139 -662 238 -1250zM220 1790h6c12 0 32 0 59 -1s48 -1 61 -1h8c13 0 14 1 14 -18v-8c0 -69 29 -104 86 -104c49 0 79 32 90 96c8 28 -4 37 26 34h90c15 0 22 -4 22 -12c0 -75 -21 -138 -63 -189s-99 -77 -171 -77
c-157 0 -236 101 -236 266v2c0 8 3 12 8 12z" />
    <glyph glyph-name="abreve" unicode="&#x103;" horiz-adv-x="942" 
d="M878 -2h-216c-24 0 -20 21 -20 36c-4 29 -12 95 -23 196s-22 176 -33 224c-8 20 -35 30 -82 30c-85 0 -134 -6 -146 -18c-13 -13 -24 -50 -33 -130c-5 -40 -8 -71 -10 -94s-5 -61 -10 -116s-7 -86 -7 -94c-3 -27 -8 -34 -32 -34c-9 0 -26 0 -50 1s-44 1 -60 1
c-22 0 -82 -2 -98 -2c-20 0 -30 5 -30 14c0 8 5 39 14 92c141 863 213 1299 214 1310s3 19 6 26c5 13 21 24 48 24c73 0 171 -4 294 -12c37 -3 55 -14 59 -22c2 -4 4 -13 7 -26l232 -1354c3 -19 4 -30 4 -34c0 -12 -9 -18 -28 -18zM366 770v-6c0 -21 24 -32 72 -32
c29 0 47 -4 74 -4c31 0 46 7 46 20c0 31 -8 90 -24 179s-32 165 -48 229c-8 24 3 32 -34 32c-21 2 -20 -17 -24 -38c-39 -227 -59 -353 -62 -380zM240 1786h6c12 0 32 0 59 -1s48 -1 61 -1h8c13 0 14 1 14 -18v-8c0 -69 29 -104 86 -104c49 0 79 32 90 96c8 28 -4 37 26 34
h90c15 0 22 -4 22 -12c0 -75 -21 -138 -63 -189s-99 -77 -171 -77c-157 0 -236 101 -236 266v2c0 8 3 12 8 12z" />
    <glyph glyph-name="Aogonek" unicode="&#x104;" horiz-adv-x="918" 
d="M894 106c5 -35 8 -53 8 -56c0 -23 -15 -34 -46 -34c-3 0 -17 2 -22 2c-17 -41 -26 -79 -26 -114c0 -36 13 -54 38 -54c21 0 45 9 70 26c9 7 16 10 20 10c3 0 4 -2 4 -6c0 -29 -10 -77 -10 -96c-3 -33 -45 -50 -128 -50c-31 0 -62 10 -94 31s-48 46 -48 77
c0 53 17 112 52 176h-8h-38c-32 0 -38 6 -46 54c-4 28 -10 79 -17 153s-13 125 -17 153c-3 21 -34 42 -74 42h-4c-44 -1 -91 -5 -142 -10c-27 -3 -32 -7 -40 -28c-8 -25 -15 -57 -20 -94c-3 -19 -8 -53 -17 -103s-14 -88 -17 -115c0 -8 -4 -35 -5 -40c-1 -3 -2 -7 -4 -13
c-4 -13 -19 -19 -47 -19c-5 0 -52 3 -140 8c-39 4 -58 17 -58 38c0 15 6 52 18 112c15 84 45 268 92 553s86 507 118 667c4 20 8 32 12 36s16 6 36 6h6c83 0 179 -3 290 -10c25 -1 41 -5 47 -10s12 -19 19 -42c60 -245 139 -662 238 -1250zM552 658c0 13 -3 37 -10 70
l-14 90c-8 60 -18 122 -30 185s-23 114 -34 151c-3 5 -5 24 -9 31s-10 17 -21 17c-5 0 -17 -27 -20 -40c-9 -59 -20 -135 -31 -229s-21 -166 -29 -217c0 -1 -1 -11 -2 -29s-2 -28 -2 -31c0 -11 15 -19 45 -24s55 -8 75 -8h4c52 0 78 11 78 34z" />
    <glyph glyph-name="aogonek" unicode="&#x105;" horiz-adv-x="942" 
d="M366 770v-6c0 -21 24 -32 72 -32c29 0 47 -4 74 -4c31 0 46 7 46 20c0 31 -8 90 -24 179s-32 165 -48 229c-8 24 3 32 -34 32c-21 2 -20 -17 -24 -38c-39 -227 -59 -353 -62 -380zM878 -2h-56c-12 -39 -18 -70 -18 -94c0 -36 13 -54 38 -54c21 0 45 9 70 26
c9 7 15 10 18 10c4 0 6 -2 6 -6c0 -29 -10 -77 -10 -96c-3 -33 -45 -50 -128 -50c-31 0 -62 10 -94 31s-48 46 -48 77c0 43 14 95 42 156h-36c-24 0 -20 21 -20 36c-4 29 -12 95 -23 196s-22 176 -33 224c-8 20 -35 30 -82 30c-85 0 -134 -6 -146 -18
c-13 -13 -24 -50 -33 -130c-5 -40 -8 -71 -10 -94s-5 -61 -10 -116s-7 -86 -7 -94c-3 -27 -8 -34 -32 -34c-9 0 -26 0 -50 1s-44 1 -60 1c-22 0 -82 -2 -98 -2c-20 0 -30 5 -30 14c0 8 5 39 14 92c141 863 213 1299 214 1310s3 19 6 26c5 13 21 24 48 24
c73 0 171 -4 294 -12c37 -3 55 -14 59 -22c2 -4 4 -13 7 -26l232 -1354c3 -19 4 -30 4 -34c0 -12 -9 -18 -28 -18z" />
    <glyph glyph-name="Cacute" unicode="&#x106;" horiz-adv-x="1134" 
d="M604 -20c-184 0 -323 69 -416 206s-140 317 -140 538c0 200 52 371 155 512s243 212 419 212c149 0 265 -44 334 -124s104 -165 128 -282c0 -5 2 -11 2 -14c2 -42 -34 -30 -76 -34c-51 -5 -96 -8 -136 -8c-32 0 -47 9 -68 52c-39 79 -105 118 -198 118
c-80 0 -150 -43 -209 -130s-89 -187 -89 -302c0 -131 28 -242 84 -334s131 -138 226 -138c27 0 58 9 93 27s61 41 77 69c7 11 12 25 16 44s10 32 18 40s24 13 48 14c9 0 33 1 72 4s67 4 84 4c40 0 60 -14 60 -42c0 -124 -51 -227 -153 -309s-212 -123 -331 -123zM732 1514
h-4c-117 0 -176 3 -176 10c0 4 3 11 8 20c12 23 30 58 55 105s42 81 53 101c13 22 8 38 42 36c24 0 61 -2 112 -6s76 -9 76 -14l-14 -24c-56 -88 -98 -155 -126 -200c-16 -24 -14 -28 -26 -28z" />
    <glyph glyph-name="cacute" unicode="&#x107;" horiz-adv-x="824" 
d="M704 6h-48c-177 0 -324 65 -439 194s-173 308 -173 536c0 220 62 392 185 517s294 187 513 187c20 0 30 -11 30 -32v-26c0 -8 0 -26 -1 -54s-1 -49 -1 -62c0 -38 -5 -52 -20 -56c-11 -3 -8 -4 -25 -5c-9 -1 -15 -1 -19 -1c-252 -24 -378 -168 -378 -432
c0 -137 32 -252 96 -343s145 -150 244 -177c13 -3 47 -12 52 -13c3 -1 7 -4 12 -9c11 -11 11 -23 14 -52c3 -40 12 -88 12 -128c0 -37 -11 -44 -54 -44zM636 1512h-4c-117 0 -176 3 -176 10c0 4 3 11 8 20c12 23 30 58 55 105s42 81 53 101c13 22 8 38 42 36
c24 0 61 -2 112 -6s76 -9 76 -14l-14 -24c-56 -88 -98 -155 -126 -200c-16 -24 -14 -28 -26 -28z" />
    <glyph glyph-name="Ccircumflex" unicode="&#x108;" horiz-adv-x="1134" 
d="M604 -20c-184 0 -323 69 -416 206s-140 317 -140 538c0 200 52 371 155 512s243 212 419 212c149 0 265 -44 334 -124s104 -165 128 -282c0 -5 2 -11 2 -14c2 -42 -34 -30 -76 -34c-51 -5 -96 -8 -136 -8c-32 0 -47 9 -68 52c-39 79 -105 118 -198 118
c-80 0 -150 -43 -209 -130s-89 -187 -89 -302c0 -131 28 -242 84 -334s131 -138 226 -138c27 0 58 9 93 27s61 41 77 69c7 11 12 25 16 44s10 32 18 40s24 13 48 14c9 0 33 1 72 4s67 4 84 4c40 0 60 -14 60 -42c0 -124 -51 -227 -153 -309s-212 -123 -331 -123zM540 1846
h138c35 0 46 -12 62 -52c45 -100 80 -183 104 -250l4 -16c0 -11 -13 -8 -73 -7c-30 1 -52 1 -67 1h-8c-9 0 -15 2 -18 6c0 3 -1 5 -2 6c-8 15 -17 34 -26 59s-16 42 -20 51c-19 40 -25 37 -46 8c-4 -5 -21 -36 -52 -92c-13 -22 -13 -28 -46 -28h-128c-17 0 -26 3 -26 8
c0 3 6 15 18 36c7 12 26 46 58 101s56 97 72 125c16 29 35 44 56 44z" />
    <glyph glyph-name="ccircumflex" unicode="&#x109;" horiz-adv-x="824" 
d="M704 6h-48c-177 0 -324 65 -439 194s-173 308 -173 536c0 220 62 392 185 517s294 187 513 187c20 0 30 -11 30 -32v-26c0 -8 0 -26 -1 -54s-1 -49 -1 -62c0 -38 -5 -52 -20 -56c-11 -3 -8 -4 -25 -5c-9 -1 -15 -1 -19 -1c-252 -24 -378 -168 -378 -432
c0 -137 32 -252 96 -343s145 -150 244 -177c13 -3 47 -12 52 -13c3 -1 7 -4 12 -9c11 -11 11 -23 14 -52c3 -40 12 -88 12 -128c0 -37 -11 -44 -54 -44zM476 1844h138c35 0 46 -12 62 -52c45 -100 80 -183 104 -250l4 -16c0 -11 -13 -8 -73 -7c-30 1 -52 1 -67 1h-8
c-9 0 -15 2 -18 6c0 3 -1 5 -2 6c-8 15 -17 34 -26 59s-16 42 -20 51c-19 40 -25 37 -46 8c-4 -5 -21 -36 -52 -92c-13 -22 -13 -28 -46 -28h-128c-17 0 -26 3 -26 8c0 3 6 15 18 36c7 12 26 46 58 101s56 97 72 125c16 29 35 44 56 44z" />
    <glyph glyph-name="Cdotaccent" unicode="&#x10a;" horiz-adv-x="1134" 
d="M604 -20c-184 0 -323 69 -416 206s-140 317 -140 538c0 200 52 371 155 512s243 212 419 212c149 0 265 -44 334 -124s104 -165 128 -282c0 -5 2 -11 2 -14c2 -42 -34 -30 -76 -34c-51 -5 -96 -8 -136 -8c-32 0 -47 9 -68 52c-39 79 -105 118 -198 118
c-80 0 -150 -43 -209 -130s-89 -187 -89 -302c0 -131 28 -242 84 -334s131 -138 226 -138c27 0 58 9 93 27s61 41 77 69c7 11 12 25 16 44s10 32 18 40s24 13 48 14c9 0 33 1 72 4s67 4 84 4c40 0 60 -14 60 -42c0 -124 -51 -227 -153 -309s-212 -123 -331 -123zM540 1792
c56 4 117 6 182 6c16 0 18 -3 18 -24c3 -91 4 -161 4 -212c0 -24 -3 -25 -24 -28c-65 -5 -134 -8 -206 -8h-2c-19 0 -22 4 -22 20v10c-3 56 -4 112 -4 168v24c0 25 2 39 15 41c9 1 7 3 23 3h16z" />
    <glyph glyph-name="cdotaccent" unicode="&#x10b;" horiz-adv-x="824" 
d="M704 6h-48c-177 0 -324 65 -439 194s-173 308 -173 536c0 220 62 392 185 517s294 187 513 187c20 0 30 -11 30 -32v-26c0 -8 0 -26 -1 -54s-1 -49 -1 -62c0 -38 -5 -52 -20 -56c-11 -3 -8 -4 -25 -5c-9 -1 -15 -1 -19 -1c-252 -24 -378 -168 -378 -432
c0 -137 32 -252 96 -343s145 -150 244 -177c13 -3 47 -12 52 -13c3 -1 7 -4 12 -9c11 -11 11 -23 14 -52c3 -40 12 -88 12 -128c0 -37 -11 -44 -54 -44zM480 1790c56 4 117 6 182 6c16 0 18 -3 18 -24c3 -91 4 -161 4 -212c0 -24 -3 -25 -24 -28c-65 -5 -134 -8 -206 -8h-2
c-19 0 -22 4 -22 20v10c-3 56 -4 112 -4 168v24c0 25 2 39 15 41c9 1 7 3 23 3h16z" />
    <glyph glyph-name="Ccaron" unicode="&#x10c;" horiz-adv-x="1134" 
d="M604 -20c-184 0 -323 69 -416 206s-140 317 -140 538c0 200 52 371 155 512s243 212 419 212c149 0 265 -44 334 -124s104 -165 128 -282c0 -5 2 -11 2 -14c2 -42 -34 -30 -76 -34c-51 -5 -96 -8 -136 -8c-32 0 -47 9 -68 52c-39 79 -105 118 -198 118
c-80 0 -150 -43 -209 -130s-89 -187 -89 -302c0 -131 28 -242 84 -334s131 -138 226 -138c27 0 58 9 93 27s61 41 77 69c7 11 12 25 16 44s10 32 18 40s24 13 48 14c9 0 33 1 72 4s67 4 84 4c40 0 60 -14 60 -42c0 -124 -51 -227 -153 -309s-212 -123 -331 -123zM668 1526
h-138c-30 0 -29 7 -36 28c-95 173 -145 264 -150 272c-12 21 -18 33 -18 36c0 7 9 10 26 10h128c29 0 33 -4 46 -28c33 -61 51 -93 52 -94c11 -15 19 -22 24 -22c4 0 11 10 22 30c4 9 11 26 20 51s18 44 26 59c4 8 11 12 22 12c15 0 38 0 70 1s53 1 62 1s14 -2 14 -6
c0 -1 -1 -7 -4 -18c-24 -68 -64 -163 -120 -286c-11 -21 -11 -37 -19 -40c-7 -5 -11 -6 -27 -6z" />
    <glyph glyph-name="ccaron" unicode="&#x10d;" horiz-adv-x="824" 
d="M704 6h-48c-177 0 -324 65 -439 194s-173 308 -173 536c0 220 62 392 185 517s294 187 513 187c20 0 30 -11 30 -32v-26c0 -8 0 -26 -1 -54s-1 -49 -1 -62c0 -38 -5 -52 -20 -56c-11 -3 -8 -4 -25 -5c-9 -1 -15 -1 -19 -1c-252 -24 -378 -168 -378 -432
c0 -137 32 -252 96 -343s145 -150 244 -177c13 -3 47 -12 52 -13c3 -1 7 -4 12 -9c11 -11 11 -23 14 -52c3 -40 12 -88 12 -128c0 -37 -11 -44 -54 -44zM622 1518h-138c-30 0 -29 7 -36 28c-95 173 -145 264 -150 272c-12 21 -18 33 -18 36c0 7 9 10 26 10h128
c29 0 33 -4 46 -28c33 -61 51 -93 52 -94c11 -15 19 -22 24 -22c4 0 11 10 22 30c4 9 11 26 20 51s18 44 26 59c4 8 11 12 22 12c15 0 38 0 70 1s53 1 62 1s14 -2 14 -6c0 -1 -1 -7 -4 -18c-24 -68 -64 -163 -120 -286c-11 -21 -11 -37 -19 -40c-7 -5 -11 -6 -27 -6z" />
    <glyph glyph-name="Dcaron" unicode="&#x10e;" horiz-adv-x="862" 
d="M64 610c0 79 -2 203 -6 373s-6 296 -6 377c0 41 4 68 13 79s30 17 65 17c173 0 301 -8 382 -24c92 -17 165 -84 220 -201s82 -242 82 -375c0 -205 -21 -368 -64 -488c-45 -127 -108 -220 -188 -279s-188 -89 -324 -89c-39 0 -69 1 -92 2c-33 3 -54 11 -63 25
s-13 39 -13 75s-1 121 -3 256s-3 219 -3 252zM326 1202c-21 0 -32 -23 -32 -68s1 -171 2 -377s2 -334 2 -385c0 -43 25 -64 76 -64c48 0 94 50 139 151s67 193 67 277c0 120 -17 223 -53 316s-108 150 -201 150zM430 1518h-138c-30 0 -29 7 -36 28
c-95 173 -145 264 -150 272c-12 21 -18 33 -18 36c0 7 9 10 26 10h128c29 0 33 -4 46 -28c33 -61 51 -93 52 -94c11 -15 19 -22 24 -22c4 0 11 10 22 30c4 9 11 26 20 51s18 44 26 59c4 8 11 12 22 12c15 0 38 0 70 1s53 1 62 1s14 -2 14 -6c0 -1 -1 -7 -4 -18
c-24 -68 -64 -163 -120 -286c-11 -21 -11 -37 -19 -40c-7 -5 -11 -6 -27 -6z" />
    <glyph glyph-name="dcaron" unicode="&#x10f;" horiz-adv-x="1012" 
d="M52 124c0 69 2 173 7 312s7 243 7 314c0 225 5 421 14 588c3 48 9 78 19 90s31 18 63 18c111 0 205 -5 284 -16s153 -30 222 -59s125 -68 166 -118c83 -100 134 -261 134 -485c0 -131 -32 -256 -96 -377s-150 -218 -258 -292s-222 -111 -342 -111c-43 0 -80 3 -112 8
c-48 8 -78 19 -90 34s-18 46 -18 94zM350 1158c-20 -231 -30 -503 -30 -816c0 -24 9 -36 28 -36c92 0 170 51 235 153s97 218 97 347c0 112 -26 204 -77 277s-122 109 -211 109c-27 0 -41 -11 -42 -34zM528 1520h-138c-30 0 -29 7 -36 28c-95 173 -145 264 -150 272
c-12 21 -18 33 -18 36c0 7 9 10 26 10h128c29 0 33 -4 46 -28c33 -61 51 -93 52 -94c11 -15 19 -22 24 -22c4 0 11 10 22 30c4 9 11 26 20 51s18 44 26 59c4 8 11 12 22 12c15 0 38 0 70 1s53 1 62 1s14 -2 14 -6c0 -1 -1 -7 -4 -18c-24 -68 -64 -163 -120 -286
c-11 -21 -11 -37 -19 -40c-7 -5 -11 -6 -27 -6z" />
    <glyph glyph-name="Dcroat" unicode="&#x110;" horiz-adv-x="940" 
d="M92 848h48c-7 283 -10 453 -10 512c0 41 4 68 13 79s30 17 65 17c175 0 303 -8 384 -24c92 -17 165 -84 219 -201s81 -242 81 -375c0 -205 -21 -368 -64 -488c-45 -127 -108 -220 -187 -279s-187 -89 -323 -89c-40 0 -71 1 -94 2c-33 3 -54 11 -62 25s-12 39 -12 75
s-1 121 -4 256s-4 219 -4 252v24h-42c-43 0 -46 2 -46 34v18c0 15 0 37 -1 67s-1 52 -1 65c0 27 3 30 40 30zM410 632h-34v-260c0 -43 25 -64 76 -64c41 0 79 25 112 76s57 108 72 172s22 124 22 180c0 120 -15 223 -52 316s-107 150 -200 150c-23 0 -34 -23 -34 -68
c0 -12 0 -50 1 -115s1 -120 1 -165c31 1 75 2 132 2c17 0 26 -13 26 -38c0 -7 0 -28 -1 -65s-1 -60 -1 -69c0 -30 -2 -45 -13 -47c-9 -1 -7 -3 -23 -3h-18c-13 0 -47 -2 -66 -2z" />
    <glyph glyph-name="dslash" unicode="&#x111;" horiz-adv-x="1096" 
d="M92 856h60c3 195 7 355 14 482c3 49 9 80 18 91s30 17 62 17c111 0 205 -5 284 -16s153 -30 222 -59s125 -68 166 -118c83 -100 134 -261 134 -485c0 -131 -32 -256 -96 -377s-150 -218 -258 -292s-222 -111 -342 -111c-41 0 -78 3 -110 8c-48 8 -78 20 -91 35
s-19 46 -19 93c0 68 2 164 6 288s7 201 8 230h-50c-43 0 -46 2 -46 34v18c0 15 0 37 -1 67s-1 52 -1 65c0 27 3 30 40 30zM410 640c-3 -149 -4 -249 -4 -298c0 -24 9 -36 28 -36c92 0 170 51 235 153s97 218 97 347c0 112 -26 204 -78 277s-123 109 -212 109
c-27 0 -41 -11 -42 -34c-8 -75 -14 -173 -18 -296c18 0 75 2 90 2c17 0 26 -13 26 -38c0 -7 0 -28 -1 -65s-1 -60 -1 -69c0 -30 -2 -45 -13 -47c-9 -1 -7 -3 -23 -3h-18c-13 0 -47 -2 -66 -2z" />
    <glyph glyph-name="Emacron" unicode="&#x112;" horiz-adv-x="676" 
d="M490 836c40 0 52 -6 52 -38v-202c0 -17 -9 -26 -28 -26c-69 -3 -121 -4 -154 -4c-45 -3 -52 -14 -52 -62v-198c0 -36 21 -54 62 -54c-3 0 177 4 212 4c19 0 30 -2 34 -7s6 -20 6 -45l4 -160c0 -37 -7 -46 -34 -46c-5 0 -27 2 -38 2h-160c-83 0 -167 4 -252 12
c-72 5 -86 38 -86 126v164c0 73 5 419 16 1038c1 47 6 75 15 85s34 15 77 15c27 0 65 0 116 -1s87 -1 108 -1c4 0 28 0 71 1s77 1 101 1c28 0 45 -4 51 -11s10 -28 13 -63c3 -67 4 -115 4 -146c0 -37 -12 -51 -60 -54c-93 -5 -165 -8 -216 -8c-24 0 -48 -18 -48 -50
c0 -31 0 -69 1 -116s1 -84 1 -112c0 -31 16 -46 48 -46c11 0 30 0 57 1s54 1 79 1zM514 1692c16 0 24 -16 24 -48v-2v-58c0 -24 -3 -39 -9 -44s-23 -8 -51 -8h-258c-23 0 -36 2 -41 7s-7 19 -7 43v72c0 24 8 36 24 36c32 0 86 0 161 1s128 1 157 1z" />
    <glyph glyph-name="emacron" unicode="&#x113;" horiz-adv-x="622" 
d="M562 1410v-14c0 -25 1 -57 2 -95s2 -69 2 -93c0 -20 -14 -30 -42 -30h-22c-12 0 -32 0 -60 1s-49 1 -62 1c-40 0 -60 -11 -60 -32c0 -19 -1 -62 -2 -129s-2 -111 -2 -131c0 -15 14 -22 42 -22c17 0 48 1 91 4s73 4 89 4c12 0 14 -8 17 -20c1 -5 1 -23 1 -28
c4 -80 6 -141 6 -184c0 -29 -9 -34 -38 -34h-12c-17 -1 -46 -2 -86 -2h-100c-5 0 -9 -3 -10 -9s-2 -25 -2 -57v-248c0 -16 16 -24 48 -24c21 0 49 0 84 -1s64 -1 88 -1c21 0 32 -11 32 -34v-126v-66c0 -20 -2 -26 -11 -30c-4 -4 -19 -6 -33 -6c-49 -5 -107 -8 -172 -8
c-27 0 -67 1 -121 2s-95 2 -123 2c-45 0 -50 6 -50 38c0 145 1 356 3 631s3 488 3 639v54c0 35 2 56 7 64s15 12 31 12c20 0 47 1 80 2s59 2 78 2c61 0 148 -1 260 -4c40 -3 44 -7 44 -28zM482 1678c16 0 24 -16 24 -48v-2v-58c0 -24 -3 -39 -9 -44s-23 -8 -51 -8h-258
c-23 0 -36 2 -41 7s-7 19 -7 43v72c0 24 8 36 24 36c32 0 86 0 161 1s128 1 157 1z" />
    <glyph glyph-name="Ebreve" unicode="&#x114;" horiz-adv-x="676" 
d="M490 836c40 0 52 -6 52 -38v-202c0 -17 -9 -26 -28 -26c-69 -3 -121 -4 -154 -4c-45 -3 -52 -14 -52 -62v-198c0 -36 21 -54 62 -54c-3 0 177 4 212 4c19 0 30 -2 34 -7s6 -20 6 -45l4 -160c0 -37 -7 -46 -34 -46c-5 0 -27 2 -38 2h-160c-83 0 -167 4 -252 12
c-72 5 -86 38 -86 126v164c0 73 5 419 16 1038c1 47 6 75 15 85s34 15 77 15c27 0 65 0 116 -1s87 -1 108 -1c4 0 28 0 71 1s77 1 101 1c28 0 45 -4 51 -11s10 -28 13 -63c3 -67 4 -115 4 -146c0 -37 -12 -51 -60 -54c-93 -5 -165 -8 -216 -8c-24 0 -48 -18 -48 -50
c0 -31 0 -69 1 -116s1 -84 1 -112c0 -31 16 -46 48 -46c11 0 30 0 57 1s54 1 79 1zM132 1806h6c12 0 32 0 59 -1s48 -1 61 -1h8c13 0 14 1 14 -18v-8c0 -69 29 -104 86 -104c49 0 79 32 90 96c8 28 -4 37 26 34h90c15 0 22 -4 22 -12c0 -75 -21 -138 -63 -189
s-99 -77 -171 -77c-157 0 -236 101 -236 266v2c0 8 3 12 8 12z" />
    <glyph glyph-name="ebreve" unicode="&#x115;" horiz-adv-x="622" 
d="M562 1410v-14c0 -25 1 -57 2 -95s2 -69 2 -93c0 -20 -14 -30 -42 -30h-22c-12 0 -32 0 -60 1s-49 1 -62 1c-40 0 -60 -11 -60 -32c0 -19 -1 -62 -2 -129s-2 -111 -2 -131c0 -15 14 -22 42 -22c17 0 48 1 91 4s73 4 89 4c12 0 14 -8 17 -20c1 -5 1 -23 1 -28
c4 -80 6 -141 6 -184c0 -29 -9 -34 -38 -34h-12c-17 -1 -46 -2 -86 -2h-100c-5 0 -9 -3 -10 -9s-2 -25 -2 -57v-248c0 -16 16 -24 48 -24c21 0 49 0 84 -1s64 -1 88 -1c21 0 32 -11 32 -34v-126v-66c0 -20 -2 -26 -11 -30c-4 -4 -19 -6 -33 -6c-49 -5 -107 -8 -172 -8
c-27 0 -67 1 -121 2s-95 2 -123 2c-45 0 -50 6 -50 38c0 145 1 356 3 631s3 488 3 639v54c0 35 2 56 7 64s15 12 31 12c20 0 47 1 80 2s59 2 78 2c61 0 148 -1 260 -4c40 -3 44 -7 44 -28zM94 1804h6c12 0 32 0 59 -1s48 -1 61 -1h8c13 0 14 1 14 -18v-8
c0 -69 29 -104 86 -104c49 0 79 32 90 96c8 28 -4 37 26 34h90c15 0 22 -4 22 -12c0 -75 -21 -138 -63 -189s-99 -77 -171 -77c-157 0 -236 101 -236 266v2c0 8 3 12 8 12z" />
    <glyph glyph-name="Edotaccent" unicode="&#x116;" horiz-adv-x="676" 
d="M490 836c40 0 52 -6 52 -38v-202c0 -17 -9 -26 -28 -26c-69 -3 -121 -4 -154 -4c-45 -3 -52 -14 -52 -62v-198c0 -36 21 -54 62 -54c-3 0 177 4 212 4c19 0 30 -2 34 -7s6 -20 6 -45l4 -160c0 -37 -7 -46 -34 -46c-5 0 -27 2 -38 2h-160c-83 0 -167 4 -252 12
c-72 5 -86 38 -86 126v164c0 73 5 419 16 1038c1 47 6 75 15 85s34 15 77 15c27 0 65 0 116 -1s87 -1 108 -1c4 0 28 0 71 1s77 1 101 1c28 0 45 -4 51 -11s10 -28 13 -63c3 -67 4 -115 4 -146c0 -37 -12 -51 -60 -54c-93 -5 -165 -8 -216 -8c-24 0 -48 -18 -48 -50
c0 -31 0 -69 1 -116s1 -84 1 -112c0 -31 16 -46 48 -46c11 0 30 0 57 1s54 1 79 1zM290 1780c56 4 117 6 182 6c16 0 18 -3 18 -24c3 -91 4 -161 4 -212c0 -24 -3 -25 -24 -28c-65 -5 -134 -8 -206 -8h-2c-19 0 -22 4 -22 20v10c-3 56 -4 112 -4 168v24c0 25 2 39 15 41
c9 1 7 3 23 3h16z" />
    <glyph glyph-name="edotaccent" unicode="&#x117;" horiz-adv-x="622" 
d="M562 1410v-14c0 -25 1 -57 2 -95s2 -69 2 -93c0 -20 -14 -30 -42 -30h-22c-12 0 -32 0 -60 1s-49 1 -62 1c-40 0 -60 -11 -60 -32c0 -19 -1 -62 -2 -129s-2 -111 -2 -131c0 -15 14 -22 42 -22c17 0 48 1 91 4s73 4 89 4c12 0 14 -8 17 -20c1 -5 1 -23 1 -28
c4 -80 6 -141 6 -184c0 -29 -9 -34 -38 -34h-12c-17 -1 -46 -2 -86 -2h-100c-5 0 -9 -3 -10 -9s-2 -25 -2 -57v-248c0 -16 16 -24 48 -24c21 0 49 0 84 -1s64 -1 88 -1c21 0 32 -11 32 -34v-126v-66c0 -20 -2 -26 -11 -30c-4 -4 -19 -6 -33 -6c-49 -5 -107 -8 -172 -8
c-27 0 -67 1 -121 2s-95 2 -123 2c-45 0 -50 6 -50 38c0 145 1 356 3 631s3 488 3 639v54c0 35 2 56 7 64s15 12 31 12c20 0 47 1 80 2s59 2 78 2c61 0 148 -1 260 -4c40 -3 44 -7 44 -28zM244 1784c56 4 117 6 182 6c16 0 18 -3 18 -24c3 -91 4 -161 4 -212
c0 -24 -3 -25 -24 -28c-65 -5 -134 -8 -206 -8h-2c-19 0 -22 4 -22 20v10c-3 56 -4 112 -4 168v24c0 25 2 39 15 41c9 1 7 3 23 3h16z" />
    <glyph glyph-name="Eogonek" unicode="&#x118;" horiz-adv-x="676" 
d="M490 836c40 0 52 -6 52 -38v-202c0 -17 -9 -26 -28 -26c-69 -3 -121 -4 -154 -4c-45 -3 -52 -14 -52 -62v-198c0 -36 21 -54 62 -54c-3 0 177 4 212 4c19 0 30 -2 34 -7s6 -20 6 -45l4 -160c0 -37 -7 -46 -34 -46c-5 0 -27 2 -38 2h-44c-17 -39 -26 -77 -26 -114
c0 -36 13 -54 38 -54c21 0 45 9 70 26c9 7 15 10 18 10c4 0 6 -3 6 -8c0 -29 -10 -75 -10 -94c-3 -33 -45 -50 -128 -50c-31 0 -62 10 -94 31s-48 46 -48 77c0 53 17 112 52 176c-61 0 -143 4 -246 12c-72 5 -86 38 -86 126v164c0 73 5 419 16 1038c1 47 6 75 15 85
s34 15 77 15c27 0 65 0 116 -1s87 -1 108 -1c4 0 28 0 71 1s77 1 101 1c28 0 45 -4 51 -11s10 -28 13 -63c3 -67 4 -115 4 -146c0 -37 -12 -51 -60 -54c-93 -5 -165 -8 -216 -8c-24 0 -48 -18 -48 -50c0 -31 0 -69 1 -116s1 -84 1 -112c0 -31 16 -46 48 -46c11 0 30 0 57 1
s54 1 79 1z" />
    <glyph glyph-name="eogonek" unicode="&#x119;" horiz-adv-x="622" 
d="M562 1410v-14c0 -25 1 -57 2 -95s2 -69 2 -93c0 -20 -14 -30 -42 -30h-22c-12 0 -32 0 -60 1s-49 1 -62 1c-40 0 -60 -11 -60 -32c0 -19 -1 -62 -2 -129s-2 -111 -2 -131c0 -15 14 -22 42 -22c17 0 48 1 91 4s73 4 89 4c12 0 14 -8 17 -20c1 -5 1 -23 1 -28
c4 -80 6 -141 6 -184c0 -29 -9 -34 -38 -34h-12c-17 -1 -46 -2 -86 -2h-100c-5 0 -9 -3 -10 -9s-2 -25 -2 -57v-248c0 -16 16 -24 48 -24c21 0 49 0 84 -1s64 -1 88 -1c21 0 32 -11 32 -34v-126v-66c0 -20 -2 -26 -11 -30c-4 -4 -19 -6 -33 -6c-15 0 -67 -4 -80 -6
c-17 -41 -26 -79 -26 -112c0 -36 13 -54 38 -54c21 0 45 9 70 26c9 7 16 10 20 10c3 0 4 -3 4 -8c0 -29 -10 -75 -10 -94c-3 -33 -45 -50 -128 -50c-31 0 -62 10 -94 31s-48 46 -48 77c0 49 17 107 50 174c-23 0 -58 0 -105 1s-83 1 -107 1c-45 0 -50 6 -50 38
c0 145 1 356 3 631s3 488 3 639v54c0 35 2 56 7 64s15 12 31 12c20 0 47 1 80 2s59 2 78 2c61 0 148 -1 260 -4c40 -3 44 -7 44 -28z" />
    <glyph glyph-name="Ecaron" unicode="&#x11a;" horiz-adv-x="676" 
d="M490 836c40 0 52 -6 52 -38v-202c0 -17 -9 -26 -28 -26c-69 -3 -121 -4 -154 -4c-45 -3 -52 -14 -52 -62v-198c0 -36 21 -54 62 -54c-3 0 177 4 212 4c19 0 30 -2 34 -7s6 -20 6 -45l4 -160c0 -37 -7 -46 -34 -46c-5 0 -27 2 -38 2h-160c-83 0 -167 4 -252 12
c-72 5 -86 38 -86 126v164c0 73 5 419 16 1038c1 47 6 75 15 85s34 15 77 15c27 0 65 0 116 -1s87 -1 108 -1c4 0 28 0 71 1s77 1 101 1c28 0 45 -4 51 -11s10 -28 13 -63c3 -67 4 -115 4 -146c0 -37 -12 -51 -60 -54c-93 -5 -165 -8 -216 -8c-24 0 -48 -18 -48 -50
c0 -31 0 -69 1 -116s1 -84 1 -112c0 -31 16 -46 48 -46c11 0 30 0 57 1s54 1 79 1zM398 1514h-138c-30 0 -29 7 -36 28c-95 173 -145 264 -150 272c-12 21 -18 33 -18 36c0 7 9 10 26 10h128c29 0 33 -4 46 -28c33 -61 51 -93 52 -94c11 -15 19 -22 24 -22c4 0 11 10 22 30
c4 9 11 26 20 51s18 44 26 59c4 8 11 12 22 12c15 0 38 0 70 1s53 1 62 1s14 -2 14 -6c0 -1 -1 -7 -4 -18c-24 -68 -64 -163 -120 -286c-11 -21 -11 -37 -19 -40c-7 -5 -11 -6 -27 -6z" />
    <glyph glyph-name="ecaron" unicode="&#x11b;" horiz-adv-x="622" 
d="M562 1410v-14c0 -25 1 -57 2 -95s2 -69 2 -93c0 -20 -14 -30 -42 -30h-22c-12 0 -32 0 -60 1s-49 1 -62 1c-40 0 -60 -11 -60 -32c0 -19 -1 -62 -2 -129s-2 -111 -2 -131c0 -15 14 -22 42 -22c17 0 48 1 91 4s73 4 89 4c12 0 14 -8 17 -20c1 -5 1 -23 1 -28
c4 -80 6 -141 6 -184c0 -29 -9 -34 -38 -34h-12c-17 -1 -46 -2 -86 -2h-100c-5 0 -9 -3 -10 -9s-2 -25 -2 -57v-248c0 -16 16 -24 48 -24c21 0 49 0 84 -1s64 -1 88 -1c21 0 32 -11 32 -34v-126v-66c0 -20 -2 -26 -11 -30c-4 -4 -19 -6 -33 -6c-49 -5 -107 -8 -172 -8
c-27 0 -67 1 -121 2s-95 2 -123 2c-45 0 -50 6 -50 38c0 145 1 356 3 631s3 488 3 639v54c0 35 2 56 7 64s15 12 31 12c20 0 47 1 80 2s59 2 78 2c61 0 148 -1 260 -4c40 -3 44 -7 44 -28zM396 1518h-138c-30 0 -29 7 -36 28c-95 173 -145 264 -150 272
c-12 21 -18 33 -18 36c0 7 9 10 26 10h128c29 0 33 -4 46 -28c33 -61 51 -93 52 -94c11 -15 19 -22 24 -22c4 0 11 10 22 30c4 9 11 26 20 51s18 44 26 59c4 8 11 12 22 12c15 0 38 0 70 1s53 1 62 1s14 -2 14 -6c0 -1 -1 -7 -4 -18c-24 -68 -64 -163 -120 -286
c-11 -21 -11 -37 -19 -40c-7 -5 -11 -6 -27 -6z" />
    <glyph glyph-name="Gcircumflex" unicode="&#x11c;" horiz-adv-x="1136" 
d="M710 706c39 0 97 1 176 2s135 2 170 2c19 0 28 -7 28 -20c1 -29 2 -71 2 -124c0 -144 -21 -255 -64 -334c-43 -80 -101 -143 -175 -189s-154 -69 -241 -69c-197 0 -340 62 -427 185s-131 309 -131 557c0 235 46 416 138 544s234 192 426 192c119 0 218 -36 299 -109
s135 -171 163 -295c1 -8 2 -18 2 -30c0 -35 -11 -41 -64 -46c-51 -7 -101 -10 -152 -10c-41 0 -52 9 -61 26c-4 8 -11 37 -19 56c-41 104 -91 156 -148 156c-109 0 -195 -70 -238 -175s-64 -218 -64 -333c0 -309 84 -464 252 -464c80 0 140 32 179 89s56 102 77 177h-50
c-1 0 -43 -2 -124 -6c-27 0 -40 15 -40 46c0 7 1 21 3 43s3 38 3 47c0 13 0 40 1 47s-1 23 6 24c10 9 26 11 73 11zM524 1840h138c35 0 46 -12 62 -52c45 -100 80 -183 104 -250l4 -16c0 -11 -13 -8 -73 -7c-30 1 -52 1 -67 1h-8c-9 0 -15 2 -18 6c0 3 -1 5 -2 6
c-8 15 -17 34 -26 59s-16 42 -20 51c-19 40 -25 37 -46 8c-4 -5 -21 -36 -52 -92c-13 -22 -13 -28 -46 -28h-128c-17 0 -26 3 -26 8c0 3 6 15 18 36c7 12 26 46 58 101s56 97 72 125c16 29 35 44 56 44z" />
    <glyph glyph-name="gcircumflex" unicode="&#x11d;" 
d="M646 468c-1 16 -2 65 -2 146c0 28 12 36 28 39c8 1 35 3 46 3c56 3 99 4 128 4c17 0 43 0 76 -1s59 -1 76 -1c31 0 50 -3 57 -8s11 -20 11 -44c0 -3 -2 -19 -2 -24c0 -217 -41 -374 -124 -471s-201 -145 -354 -145c-361 0 -542 263 -542 788c0 176 48 348 135 484
c43 68 100 123 171 164s149 62 236 62c137 0 248 -40 332 -120s133 -179 146 -296c3 -27 4 -42 4 -46c0 -19 -5 -30 -16 -35s-35 -7 -74 -7c-56 0 -100 1 -132 2c-35 3 -49 9 -53 13s-10 38 -15 51c-16 48 -43 88 -81 119s-76 47 -115 47c-76 0 -139 -49 -190 -148
s-76 -201 -76 -308c0 -131 24 -246 71 -347s112 -151 193 -151c152 0 228 53 228 158c0 24 -11 36 -32 36c-29 0 -73 4 -92 4c-32 0 -35 3 -38 32zM534 1860h138c35 0 46 -12 62 -52c45 -100 80 -183 104 -250l4 -16c0 -11 -13 -8 -73 -7c-30 1 -52 1 -67 1h-8
c-9 0 -15 2 -18 6c0 3 -1 5 -2 6c-8 15 -17 34 -26 59s-16 42 -20 51c-19 40 -25 37 -46 8c-4 -5 -21 -36 -52 -92c-13 -22 -13 -28 -46 -28h-128c-17 0 -26 3 -26 8c0 3 6 15 18 36c7 12 26 46 58 101s56 97 72 125c16 29 35 44 56 44z" />
    <glyph glyph-name="Gbreve" unicode="&#x11e;" horiz-adv-x="1136" 
d="M710 706c39 0 97 1 176 2s135 2 170 2c19 0 28 -7 28 -20c1 -29 2 -71 2 -124c0 -144 -21 -255 -64 -334c-43 -80 -101 -143 -175 -189s-154 -69 -241 -69c-197 0 -340 62 -427 185s-131 309 -131 557c0 235 46 416 138 544s234 192 426 192c119 0 218 -36 299 -109
s135 -171 163 -295c1 -8 2 -18 2 -30c0 -35 -11 -41 -64 -46c-51 -7 -101 -10 -152 -10c-41 0 -52 9 -61 26c-4 8 -11 37 -19 56c-41 104 -91 156 -148 156c-109 0 -195 -70 -238 -175s-64 -218 -64 -333c0 -309 84 -464 252 -464c80 0 140 32 179 89s56 102 77 177h-50
c-1 0 -43 -2 -124 -6c-27 0 -40 15 -40 46c0 7 1 21 3 43s3 38 3 47c0 13 0 40 1 47s-1 23 6 24c10 9 26 11 73 11zM368 1794h6c12 0 32 0 59 -1s48 -1 61 -1h8c13 0 14 1 14 -18v-8c0 -69 29 -104 86 -104c49 0 79 32 90 96c8 28 -4 37 26 34h90c15 0 22 -4 22 -12
c0 -75 -21 -138 -63 -189s-99 -77 -171 -77c-157 0 -236 101 -236 266v2c0 8 3 12 8 12z" />
    <glyph glyph-name="gbreve" unicode="&#x11f;" 
d="M646 468c-1 16 -2 65 -2 146c0 28 12 36 28 39c8 1 35 3 46 3c56 3 99 4 128 4c17 0 43 0 76 -1s59 -1 76 -1c31 0 50 -3 57 -8s11 -20 11 -44c0 -3 -2 -19 -2 -24c0 -217 -41 -374 -124 -471s-201 -145 -354 -145c-361 0 -542 263 -542 788c0 176 48 348 135 484
c43 68 100 123 171 164s149 62 236 62c137 0 248 -40 332 -120s133 -179 146 -296c3 -27 4 -42 4 -46c0 -19 -5 -30 -16 -35s-35 -7 -74 -7c-56 0 -100 1 -132 2c-35 3 -49 9 -53 13s-10 38 -15 51c-16 48 -43 88 -81 119s-76 47 -115 47c-76 0 -139 -49 -190 -148
s-76 -201 -76 -308c0 -131 24 -246 71 -347s112 -151 193 -151c152 0 228 53 228 158c0 24 -11 36 -32 36c-29 0 -73 4 -92 4c-32 0 -35 3 -38 32zM334 1806h6c12 0 32 0 59 -1s48 -1 61 -1h8c13 0 14 1 14 -18v-8c0 -69 29 -104 86 -104c49 0 79 32 90 96c8 28 -4 37 26 34
h90c15 0 22 -4 22 -12c0 -75 -21 -138 -63 -189s-99 -77 -171 -77c-157 0 -236 101 -236 266v2c0 8 3 12 8 12z" />
    <glyph glyph-name="Gdotaccent" unicode="&#x120;" horiz-adv-x="1136" 
d="M710 706c39 0 97 1 176 2s135 2 170 2c19 0 28 -7 28 -20c1 -29 2 -71 2 -124c0 -144 -21 -255 -64 -334c-43 -80 -101 -143 -175 -189s-154 -69 -241 -69c-197 0 -340 62 -427 185s-131 309 -131 557c0 235 46 416 138 544s234 192 426 192c119 0 218 -36 299 -109
s135 -171 163 -295c1 -8 2 -18 2 -30c0 -35 -11 -41 -64 -46c-51 -7 -101 -10 -152 -10c-41 0 -52 9 -61 26c-4 8 -11 37 -19 56c-41 104 -91 156 -148 156c-109 0 -195 -70 -238 -175s-64 -218 -64 -333c0 -309 84 -464 252 -464c80 0 140 32 179 89s56 102 77 177h-50
c-1 0 -43 -2 -124 -6c-27 0 -40 15 -40 46c0 7 1 21 3 43s3 38 3 47c0 13 0 40 1 47s-1 23 6 24c10 9 26 11 73 11zM518 1794c56 4 117 6 182 6c16 0 18 -3 18 -24c3 -91 4 -161 4 -212c0 -24 -3 -25 -24 -28c-65 -5 -134 -8 -206 -8h-2c-19 0 -22 4 -22 20v10
c-3 56 -4 112 -4 168v24c0 25 2 39 15 41c9 1 7 3 23 3h16z" />
    <glyph glyph-name="gdotaccent" unicode="&#x121;" 
d="M646 468c-1 16 -2 65 -2 146c0 28 12 36 28 39c8 1 35 3 46 3c56 3 99 4 128 4c17 0 43 0 76 -1s59 -1 76 -1c31 0 50 -3 57 -8s11 -20 11 -44c0 -3 -2 -19 -2 -24c0 -217 -41 -374 -124 -471s-201 -145 -354 -145c-361 0 -542 263 -542 788c0 176 48 348 135 484
c43 68 100 123 171 164s149 62 236 62c137 0 248 -40 332 -120s133 -179 146 -296c3 -27 4 -42 4 -46c0 -19 -5 -30 -16 -35s-35 -7 -74 -7c-56 0 -100 1 -132 2c-35 3 -49 9 -53 13s-10 38 -15 51c-16 48 -43 88 -81 119s-76 47 -115 47c-76 0 -139 -49 -190 -148
s-76 -201 -76 -308c0 -131 24 -246 71 -347s112 -151 193 -151c152 0 228 53 228 158c0 24 -11 36 -32 36c-29 0 -73 4 -92 4c-32 0 -35 3 -38 32zM526 1786c56 4 117 6 182 6c16 0 18 -3 18 -24c3 -91 4 -161 4 -212c0 -24 -3 -25 -24 -28c-65 -5 -134 -8 -206 -8h-2
c-19 0 -22 4 -22 20v10c-3 56 -4 112 -4 168v24c0 25 2 39 15 41c9 1 7 3 23 3h16z" />
    <glyph glyph-name="uni0122" unicode="&#x122;" horiz-adv-x="1136" 
d="M710 706c39 0 97 1 176 2s135 2 170 2c19 0 28 -7 28 -20c1 -29 2 -71 2 -124c0 -144 -21 -255 -64 -334c-43 -80 -101 -143 -175 -189s-154 -69 -241 -69c-197 0 -340 62 -427 185s-131 309 -131 557c0 235 46 416 138 544s234 192 426 192c119 0 218 -36 299 -109
s135 -171 163 -295c1 -8 2 -18 2 -30c0 -35 -11 -41 -64 -46c-51 -7 -101 -10 -152 -10c-41 0 -52 9 -61 26c-4 8 -11 37 -19 56c-41 104 -91 156 -148 156c-109 0 -195 -70 -238 -175s-64 -218 -64 -333c0 -309 84 -464 252 -464c80 0 140 32 179 89s56 102 77 177h-50
c-1 0 -43 -2 -124 -6c-27 0 -40 15 -40 46c0 7 1 21 3 43s3 38 3 47c0 13 0 40 1 47s-1 23 6 24c10 9 26 11 73 11zM442 -78c27 0 65 -4 102 -4c16 0 49 2 60 2c48 0 73 -9 76 -28c1 -8 2 -23 2 -46c0 -16 -1 -40 -2 -71s-2 -50 -2 -57c0 -87 -9 -149 -26 -186
s-55 -69 -114 -94c-19 -9 -40 -14 -64 -14c-29 0 -49 5 -60 16c-7 5 -10 13 -10 24c0 13 7 25 20 34c13 8 44 25 51 29s28 18 32 29c8 18 17 44 15 90c0 13 -17 18 -52 19c-17 1 -30 2 -38 3c-16 9 -25 16 -26 20c0 15 0 46 1 93s1 77 1 89c0 45 5 52 34 52z" />
    <glyph glyph-name="uni0123" unicode="&#x123;" 
d="M646 468c-1 16 -2 65 -2 146c0 28 12 36 28 39c8 1 35 3 46 3c56 3 99 4 128 4c17 0 43 0 76 -1s59 -1 76 -1c31 0 50 -3 57 -8s11 -20 11 -44c0 -3 -2 -19 -2 -24c0 -217 -41 -374 -124 -471s-201 -145 -354 -145c-361 0 -542 263 -542 788c0 176 48 348 135 484
c43 68 100 123 171 164s149 62 236 62c137 0 248 -40 332 -120s133 -179 146 -296c3 -27 4 -42 4 -46c0 -19 -5 -30 -16 -35s-35 -7 -74 -7c-56 0 -100 1 -132 2c-35 3 -49 9 -53 13s-10 38 -15 51c-16 48 -43 88 -81 119s-76 47 -115 47c-76 0 -139 -49 -190 -148
s-76 -201 -76 -308c0 -131 24 -246 71 -347s112 -151 193 -151c152 0 228 53 228 158c0 24 -11 36 -32 36c-29 0 -73 4 -92 4c-32 0 -35 3 -38 32zM704 1526c-27 0 -65 4 -102 4c-16 0 -49 -2 -60 -2c-48 0 -73 9 -76 28c-1 8 -2 23 -2 46c0 16 1 40 2 71s2 50 2 57
c0 87 9 149 26 186s55 69 114 94c19 9 40 14 64 14c29 0 49 -5 60 -16c7 -5 10 -13 10 -24c0 -13 -7 -25 -20 -34c-13 -8 -44 -25 -51 -29s-28 -18 -32 -29c-8 -18 -18 -44 -15 -90c0 -13 17 -18 52 -19c17 -1 30 -2 38 -3c16 -9 25 -16 26 -20c0 -15 0 -46 -1 -93
s-1 -77 -1 -89c0 -45 -5 -52 -34 -52z" />
    <glyph glyph-name="Hcircumflex" unicode="&#x124;" horiz-adv-x="878" 
d="M310 1442c0 -20 0 -60 -1 -120s-1 -111 -1 -152c0 -32 0 -78 1 -137s1 -108 1 -147v-12c0 -29 0 -30 32 -30c24 0 55 0 92 -1s65 -1 84 -1c15 0 23 3 26 8s5 22 6 50c3 173 7 341 14 504c3 40 12 46 44 46c72 0 125 -1 160 -2h20c27 0 40 -8 40 -24v-2
c-3 -95 -9 -302 -18 -622s-15 -570 -16 -750c0 -43 -13 -50 -64 -50h-168h-6c-27 0 -28 3 -28 48c0 56 1 136 2 241s2 182 2 231c0 32 -9 48 -26 48c-13 0 -39 0 -78 -1s-63 -1 -74 -1c-55 1 -50 -3 -52 -58c-1 -27 -3 -95 -4 -206s-3 -189 -6 -234c-3 -40 -7 -62 -14 -66
c-3 -3 -23 -5 -60 -6c-8 0 -25 -2 -30 -2c-37 0 -62 1 -74 2c-53 5 -60 8 -60 32c0 59 1 143 4 252c3 107 5 206 6 298s2 192 2 300s1 201 2 280v98v174c0 16 6 24 18 24h202c15 0 22 -4 22 -12zM380 1856h138c35 0 46 -12 62 -52c45 -100 80 -183 104 -250l4 -16
c0 -11 -13 -8 -73 -7c-30 1 -52 1 -67 1h-8c-9 0 -15 2 -18 6c0 3 -1 5 -2 6c-8 15 -17 34 -26 59s-16 42 -20 51c-19 40 -25 37 -46 8c-4 -5 -21 -36 -52 -92c-13 -22 -13 -28 -46 -28h-128c-17 0 -26 3 -26 8c0 3 6 15 18 36c7 12 26 46 58 101s56 97 72 125
c16 29 35 44 56 44z" />
    <glyph glyph-name="hcircumflex" unicode="&#x125;" horiz-adv-x="906" 
d="M368 570c-20 -1 -30 -28 -30 -80c0 -67 1 -153 3 -259s3 -170 3 -191s-2 -33 -6 -36s-17 -5 -38 -6c-16 -1 -40 -2 -72 -2c-47 0 -88 2 -124 6c-21 1 -32 21 -32 58c0 153 -2 375 -7 665s-7 500 -7 631c0 19 -2 54 -2 62c0 29 9 34 60 34c19 0 91 -2 110 -2
c44 0 70 -2 77 -6s11 -19 11 -44c0 -81 2 -177 7 -288s7 -194 7 -250c0 -27 3 -43 9 -49s21 -10 45 -11h44h94c27 0 43 5 49 14s9 29 9 60v2c0 25 0 60 -1 105s-1 80 -1 105c0 35 0 85 1 152s1 114 1 142c0 43 8 58 56 58c11 0 34 0 71 1s60 1 69 1c53 0 62 -8 62 -56
c0 -137 1 -355 4 -653s4 -520 4 -667v-2c0 -21 -2 -33 -6 -36s-17 -5 -40 -6c-27 0 -78 -4 -111 -5c-17 -1 -31 -1 -43 -1h-6c-42 0 -40 12 -40 56c-12 177 -18 315 -18 412v66c0 20 -18 30 -54 30c-56 0 -109 -3 -158 -10zM390 1842h138c35 0 46 -12 62 -52
c45 -100 80 -183 104 -250l4 -16c0 -11 -13 -8 -73 -7c-30 1 -52 1 -67 1h-8c-9 0 -15 2 -18 6c0 3 -1 5 -2 6c-8 15 -17 34 -26 59s-16 42 -20 51c-19 40 -25 37 -46 8c-4 -5 -21 -36 -52 -92c-13 -22 -13 -28 -46 -28h-128c-17 0 -26 3 -26 8c0 3 6 15 18 36
c7 12 26 46 58 101s56 97 72 125c16 29 35 44 56 44z" />
    <glyph glyph-name="Hbar" unicode="&#x126;" horiz-adv-x="850" 
d="M532 900v88h-242c0 -18 2 -79 2 -102v-12c0 -29 0 -30 32 -30c24 0 55 0 92 -1s65 -1 84 -1c15 0 23 3 26 8s5 22 6 50zM794 1130h60c15 0 22 -12 22 -36c-1 -30 -3 -82 -6 -92c0 -8 -15 -10 -19 -11s-28 -1 -39 -1c-5 0 -19 -2 -22 -2c-15 -468 -23 -781 -24 -938
c0 -43 -11 -50 -62 -50h-160h-6c-27 0 -28 3 -28 48c0 56 1 136 2 241s2 182 2 231c0 32 -9 48 -28 48c-13 0 -39 0 -77 -1s-62 -1 -73 -1c-55 1 -50 -3 -52 -58c-1 -27 -3 -95 -5 -206s-4 -189 -7 -234c-3 -40 -7 -62 -14 -66c-3 -3 -23 -5 -60 -6c-8 0 -20 -2 -28 -2
c-25 0 -44 1 -56 2c-53 5 -60 8 -60 32c0 59 1 143 4 252c1 73 4 310 8 710h-26c-45 0 -50 5 -50 34c0 32 -2 41 -2 70c0 24 7 30 44 30h36v34v98v174c0 16 6 24 18 24h182c16 0 24 -4 24 -12c0 -20 0 -60 -1 -120s-1 -111 -1 -152v-44c28 0 69 0 124 1s95 1 122 1
c1 55 5 147 10 276c3 40 12 46 44 46c67 0 117 -1 152 -2h20c27 0 40 -8 40 -24v-2c-1 -33 -3 -82 -5 -147s-3 -113 -3 -145z" />
    <glyph glyph-name="hbar" unicode="&#x127;" horiz-adv-x="906" 
d="M836 1130h46c15 0 22 -12 22 -36c-1 -30 -3 -82 -6 -92c0 -8 -15 -10 -19 -11s-28 -1 -39 -1h-2c4 -608 6 -916 6 -924v-2c0 -21 -2 -33 -6 -36s-17 -5 -40 -6c-27 0 -78 -4 -111 -5c-17 -1 -31 -1 -43 -1h-6c-42 0 -40 12 -40 56c-12 177 -18 315 -18 412v66
c0 20 -18 30 -54 30c-56 0 -109 -3 -158 -10c-20 -1 -30 -28 -30 -80c0 -67 1 -153 3 -259s3 -170 3 -191s-2 -33 -6 -36s-17 -5 -38 -6c-16 -1 -40 -2 -72 -2c-47 0 -88 2 -124 6c-21 1 -32 21 -32 58c0 100 -3 410 -10 930h-12c-45 0 -50 5 -50 34c0 32 -2 41 -2 70
c0 24 9 30 46 30h16c0 27 0 65 -1 116s-1 89 -1 116c0 19 -2 54 -2 62c0 29 9 34 60 34c19 0 91 -2 110 -2c44 0 70 -2 77 -6s11 -19 11 -44c0 -101 2 -193 6 -274c29 0 73 0 130 1s100 1 128 1v254c0 43 8 58 56 58c11 0 34 0 71 1s60 1 69 1c53 0 62 -8 62 -56v-256z
M578 854v134h-254c3 -67 4 -117 4 -152c0 -27 3 -43 9 -48s21 -9 45 -10c3 0 28 -2 44 -2l94 2c27 0 43 5 49 14s9 29 9 60v2z" />
    <glyph glyph-name="Itilde" unicode="&#x128;" horiz-adv-x="394" 
d="M56 54c0 176 3 418 10 726s11 505 12 592v10c0 25 3 42 9 49s22 12 49 13c51 4 98 6 142 6h30c27 0 26 -2 26 -34c0 -155 -1 -380 -4 -676s-4 -525 -4 -686v-26c0 -27 -6 -28 -54 -28c-75 0 -135 5 -182 16c-29 5 -34 14 -34 38zM22 1532h-21h-29c-9 3 -13 11 -13 26
c0 96 14 166 41 211s72 67 137 67c26 0 48 -13 65 -38c18 -25 35 -50 51 -75s34 -37 54 -37c38 0 66 30 84 90c3 11 6 16 9 16c10 0 23 -4 39 -12s24 -15 24 -20c0 -23 -1 -39 -3 -50c-10 -53 -29 -100 -58 -139s-61 -59 -94 -59c-82 -5 -141 140 -173 134
c-24 0 -37 -2 -56 -27c-10 -13 -18 -31 -24 -55c-6 -21 -17 -32 -33 -32z" />
    <glyph glyph-name="itilde" unicode="&#x129;" horiz-adv-x="360" 
d="M240 1442c27 0 43 -4 50 -12s10 -28 10 -60c0 -144 -1 -363 -3 -656s-3 -511 -3 -654c3 -29 -5 -42 -9 -50c-1 -5 -18 -6 -22 -7s-30 -1 -41 -1s-35 -2 -46 -2h-68c-43 0 -50 21 -50 88c0 111 1 273 3 487s3 374 3 481c0 31 0 81 -1 152s-1 123 -1 156s3 54 8 62
s18 12 38 12c13 0 35 1 66 2s53 2 66 2zM47 1539h-19h-27c-8 3 -12 10 -12 23c0 87 12 152 37 193s67 61 126 61c23 0 43 -12 60 -35c16 -23 31 -46 46 -68c15 -23 31 -34 49 -34c35 0 60 27 77 82c3 10 6 15 9 15c9 0 20 -4 35 -11s22 -13 23 -18c0 -21 -1 -36 -3 -46
c-9 -49 -27 -91 -54 -127s-55 -54 -85 -54c-25 0 -47 10 -68 31s-39 41 -54 62c-15 20 -27 30 -36 30c-11 0 -20 -1 -28 -4c-15 -5 -34 -27 -46 -71c-5 -19 -15 -29 -30 -29z" />
    <glyph glyph-name="Imacron" unicode="&#x12a;" horiz-adv-x="394" 
d="M56 54c0 176 3 418 10 726s11 505 12 592v10c0 25 3 42 9 49s22 12 49 13c51 4 98 6 142 6h30c27 0 26 -2 26 -34c0 -155 -1 -380 -4 -676s-4 -525 -4 -686v-26c0 -27 -6 -28 -54 -28c-75 0 -135 5 -182 16c-29 5 -34 14 -34 38zM378 1690c16 0 24 -16 24 -48v-2v-58
c0 -24 -3 -39 -9 -44s-23 -8 -51 -8h-258c-23 0 -36 2 -41 7s-7 19 -7 43v72c0 24 8 36 24 36c32 0 86 0 161 1s128 1 157 1z" />
    <glyph glyph-name="imacron" unicode="&#x12b;" horiz-adv-x="360" 
d="M240 1442c27 0 43 -4 50 -12s10 -28 10 -60c0 -144 -1 -363 -3 -656s-3 -511 -3 -654c3 -29 -5 -42 -9 -50c-1 -5 -18 -6 -22 -7s-30 -1 -41 -1s-35 -2 -46 -2h-68c-43 0 -50 21 -50 88c0 111 1 273 3 487s3 374 3 481c0 31 0 81 -1 152s-1 123 -1 156s3 54 8 62
s18 12 38 12c13 0 35 1 66 2s53 2 66 2zM348 1676c16 0 24 -16 24 -48v-2v-58c0 -24 -3 -39 -9 -44s-23 -8 -51 -8h-258c-23 0 -36 2 -41 7s-7 19 -7 43v72c0 24 8 36 24 36c32 0 86 0 161 1s128 1 157 1z" />
    <glyph glyph-name="Ibreve" unicode="&#x12c;" horiz-adv-x="394" 
d="M56 54c0 176 3 418 10 726s11 505 12 592v10c0 25 3 42 9 49s22 12 49 13c51 4 98 6 142 6h30c27 0 26 -2 26 -34c0 -155 -1 -380 -4 -676s-4 -525 -4 -686v-26c0 -27 -6 -28 -54 -28c-75 0 -135 5 -182 16c-29 5 -34 14 -34 38zM-6 1796h6c12 0 32 0 59 -1s48 -1 61 -1
h8c13 0 14 1 14 -18v-8c0 -69 29 -104 86 -104c49 0 79 32 90 96c8 28 -4 37 26 34h90c15 0 22 -4 22 -12c0 -75 -21 -138 -63 -189s-99 -77 -171 -77c-157 0 -236 101 -236 266v2c0 8 3 12 8 12z" />
    <glyph glyph-name="ibreve" unicode="&#x12d;" horiz-adv-x="360" 
d="M240 1442c27 0 43 -4 50 -12s10 -28 10 -60c0 -144 -1 -363 -3 -656s-3 -511 -3 -654c3 -29 -5 -42 -9 -50c-1 -5 -18 -6 -22 -7s-30 -1 -41 -1s-35 -2 -46 -2h-68c-43 0 -50 21 -50 88c0 111 1 273 3 487s3 374 3 481c0 31 0 81 -1 152s-1 123 -1 156s3 54 8 62
s18 12 38 12c13 0 35 1 66 2s53 2 66 2zM-30 1788h6c12 0 32 0 59 -1s48 -1 61 -1h8c13 0 14 1 14 -18v-8c0 -69 29 -104 86 -104c49 0 79 32 90 96c8 28 -4 37 26 34h90c15 0 22 -4 22 -12c0 -75 -21 -138 -63 -189s-99 -77 -171 -77c-157 0 -236 101 -236 266v2
c0 8 3 12 8 12z" />
    <glyph glyph-name="Iogonek" unicode="&#x12e;" horiz-adv-x="394" 
d="M56 54c0 176 3 418 10 726s11 505 12 592v10c0 25 3 42 9 49s22 12 49 13c51 4 98 6 142 6h30c27 0 26 -2 26 -34c0 -155 -1 -380 -4 -676s-4 -525 -4 -686v-26c0 -27 -6 -28 -54 -28h-24c-12 -39 -18 -71 -18 -96c0 -36 13 -54 38 -54c21 0 45 9 70 26c9 7 15 10 18 10
c4 0 6 -2 6 -6c0 -29 -10 -77 -10 -96c-3 -33 -45 -50 -128 -50c-31 0 -62 10 -94 31s-48 46 -48 77c0 47 15 102 46 166c-11 3 -30 8 -38 8c-29 5 -34 14 -34 38z" />
    <glyph glyph-name="iogonek" unicode="&#x12f;" horiz-adv-x="360" 
d="M240 1442c27 0 43 -4 50 -12s10 -28 10 -60c0 -144 -1 -363 -3 -656s-3 -511 -3 -654c0 -28 -3 -45 -9 -50s-21 -8 -45 -8c-17 -39 -26 -77 -26 -116c0 -36 13 -54 38 -54c21 0 45 9 70 26c9 7 15 10 18 10c4 0 6 -3 6 -8c0 -29 -10 -75 -10 -94c-3 -33 -45 -50 -128 -50
c-31 0 -62 10 -94 31s-48 46 -48 77c0 53 17 112 52 176h-10c-43 0 -50 21 -50 88c0 111 1 273 3 487s3 374 3 481c0 31 0 81 -1 152s-1 123 -1 156s3 54 8 62s18 12 38 12c13 0 35 1 66 2s53 2 66 2z" />
    <glyph glyph-name="Idot" unicode="&#x130;" horiz-adv-x="394" 
d="M56 54c0 176 3 418 10 726s11 505 12 592v10c0 25 3 42 9 49s22 12 49 13c51 4 98 6 142 6h30c27 0 26 -2 26 -34c0 -155 -1 -380 -4 -676s-4 -525 -4 -686v-26c0 -27 -6 -28 -54 -28c-75 0 -135 5 -182 16c-29 5 -34 14 -34 38zM136 1776c56 4 117 6 182 6
c16 0 18 -3 18 -24c3 -91 4 -161 4 -212c0 -24 -3 -25 -24 -28c-65 -5 -134 -8 -206 -8h-2c-19 0 -22 4 -22 20v10c-3 56 -4 112 -4 168v24c0 25 2 39 15 41c9 1 7 3 23 3h16z" />
    <glyph glyph-name="dotlessi" unicode="&#x131;" horiz-adv-x="360" 
d="M240 1442c27 0 43 -4 50 -12s10 -28 10 -60c0 -144 -1 -363 -3 -656s-3 -511 -3 -654c3 -29 -5 -42 -9 -50c-1 -5 -18 -6 -22 -7s-30 -1 -41 -1s-35 -2 -46 -2h-68c-43 0 -50 21 -50 88c0 111 1 273 3 487s3 374 3 481c0 31 0 81 -1 152s-1 123 -1 156s3 54 8 62
s18 12 38 12c13 0 35 1 66 2s53 2 66 2z" />
    <glyph glyph-name="IJ" unicode="&#x132;" horiz-adv-x="1170" 
d="M56 54c0 176 3 418 10 726s11 505 12 592v10c0 25 3 42 9 49s22 12 49 13c51 4 98 6 142 6h30c27 0 26 -2 26 -34c0 -155 -1 -380 -4 -676s-4 -525 -4 -686v-26c0 -27 -6 -28 -54 -28c-75 0 -135 5 -182 16c-29 5 -34 14 -34 38zM1110 1406c0 -55 -1 -136 -2 -244
s-2 -190 -2 -246c0 -23 0 -59 1 -109s1 -90 1 -119c0 -63 0 -112 -1 -148s-3 -83 -8 -141s-11 -104 -19 -138s-20 -72 -37 -113c-33 -83 -79 -120 -152 -152c-37 -16 -78 -24 -125 -24c-107 0 -187 40 -241 121s-81 187 -81 319c0 23 8 34 24 34c1 0 54 -4 158 -12
c16 0 24 -51 31 -102s42 -102 101 -102c51 0 85 44 98 125c7 41 11 77 13 108s3 70 3 117c0 21 0 54 1 99s1 77 1 97c0 131 -2 241 -6 332c-1 20 -4 32 -8 36s-18 6 -42 6h-4c-24 0 -72 -3 -145 -9s-130 -9 -171 -9c-32 0 -34 1 -34 28v6c0 24 2 94 6 210v20
c1 33 5 51 12 54c4 1 11 2 20 2h14c83 0 184 -2 303 -5s208 -5 267 -5c16 0 24 -12 24 -36z" />
    <glyph glyph-name="ij" unicode="&#x133;" horiz-adv-x="1144" 
d="M240 1442c27 0 43 -4 50 -12s10 -28 10 -60c0 -144 -1 -363 -3 -656s-3 -511 -3 -654c3 -29 -5 -42 -9 -50c-1 -5 -18 -6 -22 -7s-30 -1 -41 -1s-35 -2 -46 -2h-68c-43 0 -50 21 -50 88c0 111 1 273 3 487s3 374 3 481c0 31 0 81 -1 152s-1 123 -1 156s3 54 8 62
s18 12 38 12c13 0 35 1 66 2s53 2 66 2zM1066 1372c0 -60 0 -153 -1 -278s-1 -219 -1 -282c0 -261 -14 -447 -42 -556c-49 -187 -149 -280 -300 -280c-55 0 -113 36 -174 108c-24 29 -44 59 -67 103c-11 22 -20 40 -26 53s-15 35 -28 64s-21 49 -25 58c-8 20 -12 34 -12 42
c0 16 44 44 82 63c24 12 57 28 62 31c11 7 21 10 32 10c20 0 35 -15 46 -44c3 -7 7 -21 14 -42s12 -37 17 -48s11 -23 18 -38c15 -29 32 -42 51 -42c25 0 46 13 61 40s24 57 27 92c4 60 6 151 6 274c0 49 -1 122 -2 219s-2 169 -2 217c0 25 -8 38 -24 38
c-31 0 -77 -1 -138 -3s-107 -3 -138 -3c-40 0 -58 2 -62 48c0 15 -1 44 -3 89s-3 76 -3 93c0 37 13 44 50 44h498c37 0 61 -4 70 -13s14 -28 14 -57z" />
    <glyph glyph-name="Jcircumflex" unicode="&#x134;" horiz-adv-x="758" 
d="M704 1406c0 -55 -1 -136 -2 -244s-2 -190 -2 -246c0 -23 0 -59 1 -109s1 -90 1 -119c0 -63 0 -112 -1 -148s-3 -83 -8 -141s-11 -104 -19 -138s-20 -72 -37 -113c-33 -83 -79 -120 -152 -152c-37 -16 -78 -24 -125 -24c-107 0 -187 40 -241 121s-81 187 -81 319
c0 23 8 34 24 34c1 0 54 -4 158 -12c16 0 24 -51 31 -102s42 -102 101 -102c51 0 85 44 98 125c7 41 11 77 13 108s3 70 3 117c0 21 0 54 1 99s1 77 1 97c0 131 -2 241 -6 332c-1 20 -4 32 -8 36s-18 6 -42 6h-4c-24 0 -72 -3 -145 -9s-130 -9 -171 -9c-32 0 -34 1 -34 28v6
c0 24 2 94 6 210v20c1 33 5 51 12 54c4 1 11 2 20 2h14c83 0 184 -2 303 -5s208 -5 267 -5c16 0 24 -12 24 -36zM340 1862h138c35 0 46 -12 62 -52c45 -100 80 -183 104 -250l4 -16c0 -11 -13 -8 -73 -7c-30 1 -52 1 -67 1h-8c-9 0 -15 2 -18 6c0 3 -1 5 -2 6
c-8 15 -17 34 -26 59s-16 42 -20 51c-19 40 -25 37 -46 8c-4 -5 -21 -36 -52 -92c-13 -22 -13 -28 -46 -28h-128c-17 0 -26 3 -26 8c0 3 6 15 18 36c7 12 26 46 58 101s56 97 72 125c16 29 35 44 56 44z" />
    <glyph glyph-name="jcircumflex" unicode="&#x135;" horiz-adv-x="778" 
d="M722 1372c0 -60 0 -153 -1 -278s-1 -219 -1 -282c0 -261 -14 -447 -42 -556c-49 -187 -149 -280 -300 -280c-55 0 -113 36 -174 108c-24 29 -44 59 -67 103c-11 22 -20 40 -26 53s-15 35 -28 64s-21 49 -25 58c-8 20 -12 34 -12 42c0 16 44 44 82 63c24 12 57 28 62 31
c11 7 21 10 32 10c20 0 35 -15 46 -44c3 -7 7 -21 14 -42s12 -37 17 -48s11 -23 18 -38c15 -29 32 -42 51 -42c25 0 46 13 61 40s24 57 27 92c4 60 6 151 6 274c0 49 -1 122 -2 219s-2 169 -2 217c0 25 -8 38 -24 38c-31 0 -77 -1 -138 -3s-107 -3 -138 -3
c-40 0 -58 2 -62 48c0 15 -1 44 -3 89s-3 76 -3 93c0 37 13 44 50 44h498c37 0 61 -4 70 -13s14 -28 14 -57zM360 1850h138c35 0 46 -12 62 -52c45 -100 80 -183 104 -250l4 -16c0 -11 -13 -8 -73 -7c-30 1 -52 1 -67 1h-8c-9 0 -15 2 -18 6c0 3 -1 5 -2 6
c-8 15 -17 34 -26 59s-16 42 -20 51c-19 40 -25 37 -46 8c-4 -5 -21 -36 -52 -92c-13 -22 -13 -28 -46 -28h-128c-17 0 -26 3 -26 8c0 3 6 15 18 36c7 12 26 46 58 101s56 97 72 125c16 29 35 44 56 44z" />
    <glyph glyph-name="uni0136" unicode="&#x136;" horiz-adv-x="830" 
d="M62 1366c0 48 9 70 44 70c15 0 36 1 65 3s50 3 65 3h50c27 0 32 -5 32 -42v-32c0 -27 -1 -68 -2 -124s-2 -101 -2 -134c0 -20 0 -44 1 -73s1 -48 1 -57v-44c8 0 34 41 67 109c17 34 32 67 47 98s32 67 51 107s32 67 39 82c8 16 23 52 28 61c3 5 7 11 13 18
c12 15 24 17 45 17c4 0 54 -4 150 -12c31 -4 46 -10 46 -18c0 -13 -19 -27 -28 -50c-19 -33 -67 -139 -144 -317s-116 -272 -116 -283c0 -4 17 -53 52 -147s74 -197 119 -310s78 -190 101 -233c11 -19 16 -32 16 -40c0 -12 -13 -18 -38 -18h-176h-4c-29 0 -47 2 -54 7
s-14 19 -22 43c-16 47 -48 127 -95 240s-90 207 -129 282c-3 0 -4 -7 -4 -22c0 -105 2 -219 6 -340c0 -12 1 -42 4 -90s4 -83 4 -104c0 -12 -7 -18 -20 -18c-72 0 -137 5 -194 14c-13 1 -20 2 -20 3s-1 8 -2 23c-3 75 -4 128 -4 160c0 131 1 326 4 585s4 454 4 583zM294 -50
c27 0 65 -4 102 -4c16 0 49 2 60 2c48 0 73 -9 76 -28c1 -8 2 -23 2 -46c0 -16 -1 -40 -2 -71s-2 -50 -2 -57c0 -87 -9 -149 -26 -186s-55 -69 -114 -94c-19 -9 -40 -14 -64 -14c-29 0 -49 5 -60 16c-7 5 -10 13 -10 24c0 13 7 25 20 34c13 8 44 25 51 29s28 18 32 29
c8 18 17 44 15 90c0 13 -17 18 -52 19c-17 1 -30 2 -38 3c-16 9 -25 16 -26 20c0 15 0 46 1 93s1 77 1 89c0 45 5 52 34 52z" />
    <glyph glyph-name="uni0137" unicode="&#x137;" horiz-adv-x="884" 
d="M296 62c0 -29 -3 -47 -10 -54s-21 -10 -44 -10c-72 0 -119 2 -140 6c-37 5 -44 5 -48 42v150c0 45 1 113 4 204c9 227 14 425 14 594c0 67 -4 197 -12 392v28c0 35 3 37 46 42l142 12c33 0 54 -4 62 -12s12 -30 12 -66v-186c0 -25 0 -54 1 -86s1 -58 1 -78v-186
c13 0 99 186 258 558c16 37 26 48 58 48c17 0 69 -3 156 -10c35 -3 52 -11 52 -24c0 -1 -1 -5 -4 -10c-31 -57 -81 -164 -152 -320c-12 -27 -31 -68 -56 -123s-45 -100 -60 -135s-22 -57 -22 -68v-4c0 -88 93 -320 278 -696c4 -9 6 -17 6 -24c0 -19 -22 -28 -66 -28
c-13 0 -41 1 -84 2s-71 2 -84 2h-28c-21 0 -31 9 -50 54l-220 532c-7 -303 -10 -485 -10 -546zM298 -40c27 0 65 -4 102 -4c16 0 49 2 60 2c48 0 73 -9 76 -28c1 -8 2 -23 2 -46c0 -16 -1 -40 -2 -71s-2 -50 -2 -57c0 -87 -9 -149 -26 -186s-55 -69 -114 -94
c-19 -9 -40 -14 -64 -14c-29 0 -49 5 -60 16c-7 5 -10 13 -10 24c0 13 7 25 20 34c13 8 44 25 51 29s28 18 32 29c8 18 17 44 15 90c0 13 -17 18 -52 19c-17 1 -30 2 -38 3c-16 9 -25 16 -26 20c0 15 0 46 1 93s1 77 1 89c0 45 5 52 34 52z" />
    <glyph glyph-name="Lacute" unicode="&#x139;" horiz-adv-x="658" 
d="M48 48c0 119 4 308 11 567s11 456 11 591c0 64 1 111 2 140c1 70 -4 89 58 98c32 5 69 8 110 8h34c40 0 48 -7 48 -60v-1058c0 -41 11 -62 32 -62h190c27 0 43 -2 48 -6s9 -17 10 -38c5 -43 8 -101 8 -176c0 -21 -3 -34 -8 -39s-23 -8 -54 -11c-48 -4 -97 -6 -148 -6
c-31 0 -78 1 -141 3s-112 3 -145 3c-56 0 -66 9 -66 46zM278 1518h-4c-117 0 -176 3 -176 10c0 4 3 11 8 20c12 23 30 58 55 105s42 81 53 101c13 22 8 38 42 36c24 0 61 -2 112 -6s76 -9 76 -14l-14 -24c-56 -88 -98 -155 -126 -200c-16 -24 -14 -28 -26 -28z" />
    <glyph glyph-name="lacute" unicode="&#x13a;" horiz-adv-x="606" 
d="M316 348c0 -3 0 -19 1 -22s2 -13 6 -16c8 -5 20 -10 41 -10c13 0 36 1 69 2s55 2 67 2c32 0 48 -14 48 -42c0 -21 1 -57 3 -106s3 -86 3 -110c0 -37 -3 -46 -48 -46c-149 -3 -262 -4 -338 -4h-40c-32 0 -51 2 -58 5s-10 11 -10 23c0 60 0 176 -1 347s-1 300 -1 387
c0 220 3 418 8 594c1 36 6 57 13 63s29 10 65 13c15 1 47 2 96 2h32c32 0 36 -3 36 -22v-460c0 -277 3 -477 8 -600zM276 1510h-4c-117 0 -176 3 -176 10c0 4 3 11 8 20c12 23 30 58 55 105s42 81 53 101c13 22 8 38 42 36c24 0 61 -2 112 -6s76 -9 76 -14l-14 -24
c-56 -88 -98 -155 -126 -200c-16 -24 -14 -28 -26 -28z" />
    <glyph glyph-name="uni013B" unicode="&#x13b;" horiz-adv-x="658" 
d="M48 48c0 119 4 308 11 567s11 456 11 591c0 64 1 111 2 140c1 70 -4 89 58 98c32 5 69 8 110 8h34c40 0 48 -7 48 -60v-1058c0 -41 11 -62 32 -62h190c27 0 43 -2 48 -6s9 -17 10 -38c5 -43 8 -101 8 -176c0 -21 -3 -34 -8 -39s-23 -8 -54 -11c-48 -4 -97 -6 -148 -6
c-31 0 -78 1 -141 3s-112 3 -145 3c-56 0 -66 9 -66 46zM178 -66c27 0 65 -4 102 -4c16 0 49 2 60 2c48 0 73 -9 76 -28c1 -8 2 -23 2 -46c0 -16 -1 -40 -2 -71s-2 -50 -2 -57c0 -87 -9 -149 -26 -186s-55 -69 -114 -94c-19 -9 -40 -14 -64 -14c-29 0 -49 5 -60 16
c-7 5 -10 13 -10 24c0 13 7 25 20 34c13 8 44 25 51 29s28 18 32 29c8 18 18 44 15 90c0 13 -17 18 -52 19c-17 1 -30 2 -38 3c-16 9 -25 16 -26 20c0 15 0 46 1 93s1 77 1 89c0 45 5 52 34 52z" />
    <glyph glyph-name="uni013C" unicode="&#x13c;" horiz-adv-x="606" 
d="M316 348c0 -3 0 -19 1 -22s2 -13 6 -16c8 -5 20 -10 41 -10c13 0 36 1 69 2s55 2 67 2c32 0 48 -14 48 -42c0 -21 1 -57 3 -106s3 -86 3 -110c0 -37 -3 -46 -48 -46c-149 -3 -262 -4 -338 -4h-40c-32 0 -51 2 -58 5s-10 11 -10 23c0 60 0 176 -1 347s-1 300 -1 387
c0 220 3 418 8 594c1 36 6 57 13 63s29 10 65 13c15 1 47 2 96 2h32c32 0 36 -3 36 -22v-460c0 -277 3 -477 8 -600zM170 -52c27 0 65 -4 102 -4c16 0 49 2 60 2c48 0 73 -9 76 -28c1 -8 2 -23 2 -46c0 -16 -1 -40 -2 -71s-2 -50 -2 -57c0 -87 -9 -149 -26 -186
s-55 -69 -114 -94c-19 -9 -40 -14 -64 -14c-29 0 -49 5 -60 16c-7 5 -10 13 -10 24c0 13 7 25 20 34c13 8 44 25 51 29s28 18 32 29c8 18 18 44 15 90c0 13 -17 18 -52 19c-17 1 -30 2 -38 3c-16 9 -25 16 -26 20c0 15 0 46 1 93s1 77 1 89c0 45 5 52 34 52z" />
    <glyph glyph-name="Lcaron" unicode="&#x13d;" horiz-adv-x="658" 
d="M48 48c0 119 4 308 11 567s11 456 11 591c0 64 1 111 2 140c1 70 -4 89 58 98c32 5 69 8 110 8h34c40 0 48 -7 48 -60v-1058c0 -41 11 -62 32 -62h190c27 0 43 -2 48 -6s9 -17 10 -38c5 -43 8 -101 8 -176c0 -21 -3 -34 -8 -39s-23 -8 -54 -11c-48 -4 -97 -6 -148 -6
c-31 0 -78 1 -141 3s-112 3 -145 3c-56 0 -66 9 -66 46zM410 1454c27 0 65 -4 102 -4c16 0 49 2 60 2c48 0 73 -9 76 -28c1 -8 2 -23 2 -46c0 -16 -1 -40 -2 -71s-2 -50 -2 -57c0 -87 -9 -149 -26 -186s-55 -69 -114 -94c-19 -9 -40 -14 -64 -14c-29 0 -49 5 -60 16
c-7 5 -10 13 -10 24c0 13 7 25 20 34c13 8 44 25 51 29s28 18 32 29c8 18 17 43 15 90c0 13 -17 18 -52 19c-17 1 -30 2 -38 3c-16 9 -25 16 -26 20c0 15 0 46 1 93s1 77 1 89c0 45 5 52 34 52z" />
    <glyph glyph-name="lcaron" unicode="&#x13e;" horiz-adv-x="606" 
d="M316 348c0 -3 0 -19 1 -22s2 -13 6 -16c8 -5 20 -10 41 -10c13 0 36 1 69 2s55 2 67 2c32 0 48 -14 48 -42c0 -21 1 -57 3 -106s3 -86 3 -110c0 -37 -3 -46 -48 -46c-149 -3 -262 -4 -338 -4h-40c-32 0 -51 2 -58 5s-10 11 -10 23c0 60 0 176 -1 347s-1 300 -1 387
c0 220 3 418 8 594c1 36 6 57 13 63s29 10 65 13c15 1 47 2 96 2h32c32 0 36 -3 36 -22v-460c0 -277 3 -477 8 -600zM398 1446c27 0 65 -4 102 -4c16 0 49 2 60 2c48 0 73 -9 76 -28c1 -8 2 -23 2 -46c0 -16 -1 -40 -2 -71s-2 -50 -2 -57c0 -87 -9 -149 -26 -186
s-55 -69 -114 -94c-19 -9 -40 -14 -64 -14c-29 0 -49 5 -60 16c-7 5 -10 13 -10 24c0 13 7 25 20 34c13 8 44 25 51 29s28 18 32 29c8 18 17 43 15 90c0 13 -17 18 -52 19c-17 1 -30 2 -38 3c-16 9 -25 16 -26 20c0 15 0 46 1 93s1 77 1 89c0 45 5 52 34 52z" />
    <glyph glyph-name="Ldot" unicode="&#x13f;" horiz-adv-x="658" 
d="M48 48c0 119 4 308 11 567s11 456 11 591c0 64 1 111 2 140c1 70 -4 89 58 98c32 5 69 8 110 8h34c40 0 48 -7 48 -60v-1058c0 -41 11 -62 32 -62h190c27 0 43 -2 48 -6s9 -17 10 -38c5 -43 8 -101 8 -176c0 -21 -3 -34 -8 -39s-23 -8 -54 -11c-48 -4 -97 -6 -148 -6
c-31 0 -78 1 -141 3s-112 3 -145 3c-56 0 -66 9 -66 46zM440 854c96 7 153 10 172 10c16 0 24 -11 24 -32c3 -69 4 -121 4 -156c0 -37 -7 -40 -30 -40h-6h-14c-36 -3 -86 -4 -150 -4c-39 0 -40 8 -40 40v10c-3 80 -4 125 -4 134c0 27 7 35 44 38z" />
    <glyph glyph-name="ldot" unicode="&#x140;" horiz-adv-x="662" 
d="M316 348c0 -3 0 -19 1 -22s2 -13 6 -16c8 -5 20 -10 41 -10c13 0 36 1 69 2s55 2 67 2c32 0 48 -14 48 -42c0 -21 1 -57 3 -106s3 -86 3 -110c0 -37 -3 -46 -48 -46c-149 -3 -262 -4 -338 -4h-40c-32 0 -51 2 -58 5s-10 11 -10 23c0 60 0 176 -1 347s-1 300 -1 387
c0 220 3 418 8 594c1 36 6 57 13 63s29 10 65 13c15 1 47 2 96 2h32c32 0 36 -3 36 -22v-460c0 -277 3 -477 8 -600zM402 878c96 7 153 10 172 10c16 0 24 -11 24 -32c3 -69 4 -121 4 -156c0 -37 -7 -40 -30 -40h-6h-14c-36 -3 -86 -4 -150 -4c-39 0 -40 8 -40 40v10
c-3 80 -4 125 -4 134c0 27 7 35 44 38z" />
    <glyph glyph-name="Lslash" unicode="&#x141;" horiz-adv-x="798" 
d="M202 656c-2 0 -75 -39 -88 -36c-8 0 -15 7 -22 20c-13 24 -27 54 -40 90c-3 5 -4 12 -4 20c0 5 9 12 28 20c27 13 100 38 130 52c4 128 6 256 6 384c0 64 1 111 2 140c1 70 -4 89 58 98c32 5 69 8 110 8h34c40 0 48 -7 48 -60c1 -51 2 -127 3 -230s1 -179 1 -230l54 24
c1 0 11 5 29 14s30 14 37 14c5 0 11 -6 18 -18c12 -24 24 -54 36 -90c5 -16 8 -25 8 -26c0 -4 -8 -10 -24 -18c-44 -21 -88 -41 -132 -58l-26 -12c3 -189 5 -332 8 -428c0 -41 10 -62 30 -62h90h90c25 0 41 -2 46 -6s9 -17 10 -38c5 -53 8 -107 8 -162v-14
c0 -21 -3 -34 -8 -39s-23 -8 -54 -11c-32 -3 -81 -4 -146 -4c-31 0 -78 1 -142 2s-113 2 -146 2c-56 0 -66 9 -66 46c0 81 5 284 14 608z" />
    <glyph glyph-name="lslash" unicode="&#x142;" horiz-adv-x="732" 
d="M186 648c0 0 -17 -7 -50 -20c-8 -3 -13 -4 -16 -4c-9 0 -17 9 -24 26l-36 90c-1 3 -2 7 -2 12c0 16 19 15 38 24c1 1 14 7 38 16s41 17 52 22c0 33 0 78 1 134s1 95 1 118c0 28 2 123 6 286c1 36 6 57 13 63s29 10 65 13c15 1 37 2 68 2h32c18 0 29 -1 32 -9
c3 -7 4 -4 4 -17v-14c3 -55 6 -136 9 -243s6 -186 7 -235l52 22c13 7 41 19 84 36c16 7 27 10 34 10c8 0 13 -3 16 -10c4 -9 11 -26 21 -51s17 -42 21 -53l4 -16c0 -7 -8 -13 -24 -18c-73 -33 -134 -59 -182 -78l-20 -8c5 -181 10 -314 14 -398c1 -24 7 -38 16 -42
c7 -4 18 -6 34 -6c13 0 36 1 69 2s55 2 67 2c32 0 48 -14 48 -42c0 -21 1 -57 3 -106s3 -86 3 -110c0 -37 -5 -46 -50 -46c-149 -3 -262 -4 -338 -4h-40c-32 0 -51 2 -58 5s-10 11 -10 23c0 49 0 146 -1 291s-1 256 -1 333z" />
    <glyph glyph-name="Nacute" unicode="&#x143;" horiz-adv-x="952" 
d="M70 958c0 44 0 111 -1 201s-1 158 -1 205c0 33 4 54 13 62s28 12 57 12c11 0 45 -2 66 -2c32 0 49 -9 53 -14c2 -3 5 -11 10 -24s8 -23 9 -28l366 -860l16 828c0 29 0 55 6 74c5 15 13 22 34 22c11 0 37 0 78 1s69 1 84 1c32 0 32 -1 32 -30v-42v-84
c0 -109 0 -249 1 -419s1 -294 1 -371c0 -32 0 -82 1 -150s1 -121 1 -160c0 -13 0 -34 -1 -63s-1 -51 -1 -67c0 -35 -11 -52 -34 -52c-24 0 -60 3 -107 10s-82 11 -103 12c-48 3 -61 15 -80 60c-21 48 -51 117 -89 206s-60 141 -67 154l-120 284c-1 -224 -2 -339 -2 -344
c0 -37 0 -84 1 -140s1 -104 1 -144v-44c0 -45 -6 -52 -38 -52c-29 0 -85 3 -168 10c-32 3 -38 9 -38 30c0 77 1 140 4 188c11 256 16 499 16 730zM536 1524h-4c-117 0 -176 3 -176 10c0 4 3 11 8 20c12 23 30 58 55 105s42 81 53 101c13 22 8 38 42 36c24 0 61 -2 112 -6
s76 -9 76 -14l-14 -24c-56 -88 -98 -155 -126 -200c-16 -24 -14 -28 -26 -28z" />
    <glyph glyph-name="nacute" unicode="&#x144;" horiz-adv-x="880" 
d="M278 96c-3 -75 -15 -96 -74 -96h-110c-37 0 -42 5 -42 56c0 108 1 183 2 224c8 288 12 666 12 1134c4 34 1 30 30 34c36 4 74 6 114 6h70c20 0 32 -1 37 -4s10 -12 15 -28c63 -212 123 -417 182 -614l58 -186l4 202c0 21 3 103 9 246s9 245 9 308c0 36 15 54 46 54
c68 0 117 -1 148 -2c35 -3 42 -9 42 -30c0 -5 -2 -21 -2 -32c-5 -257 -8 -535 -8 -834c0 -44 0 -118 1 -223s1 -183 1 -235c0 -51 -11 -62 -64 -62c-40 0 -85 1 -136 4c-36 0 -55 2 -63 17c-7 12 -9 13 -17 37c-4 12 -7 22 -10 30c-36 100 -78 225 -125 376
s-84 262 -109 334l-4 -218c-1 -88 -4 -176 -8 -264s-7 -166 -8 -234zM524 1518h-4c-117 0 -176 3 -176 10c0 4 3 11 8 20c12 23 30 58 55 105s42 81 53 101c13 22 8 38 42 36c24 0 61 -2 112 -6s76 -9 76 -14l-14 -24c-56 -88 -98 -155 -126 -200c-16 -24 -14 -28 -26 -28z
" />
    <glyph glyph-name="uni0145" unicode="&#x145;" horiz-adv-x="952" 
d="M70 958c0 44 0 111 -1 201s-1 158 -1 205c0 33 4 54 13 62s28 12 57 12c11 0 45 -2 66 -2c32 0 49 -9 53 -14c2 -3 5 -11 10 -24s8 -23 9 -28l366 -860l16 828c0 29 0 55 6 74c5 15 13 22 34 22c11 0 37 0 78 1s69 1 84 1c32 0 32 -1 32 -30v-42v-84
c0 -109 0 -249 1 -419s1 -294 1 -371c0 -32 0 -82 1 -150s1 -121 1 -160c0 -13 0 -34 -1 -63s-1 -51 -1 -67c0 -35 -11 -52 -34 -52c-24 0 -60 3 -107 10s-82 11 -103 12c-48 3 -61 15 -80 60c-21 48 -51 117 -89 206s-60 141 -67 154l-120 284c-1 -224 -2 -339 -2 -344
c0 -37 0 -84 1 -140s1 -104 1 -144v-44c0 -45 -6 -52 -38 -52c-29 0 -85 3 -168 10c-32 3 -38 9 -38 30c0 77 1 140 4 188c11 256 16 499 16 730zM386 -38c27 0 65 -4 102 -4c16 0 49 2 60 2c48 0 73 -9 76 -28c1 -8 2 -23 2 -46c0 -16 -1 -40 -2 -71s-2 -50 -2 -57
c0 -87 -9 -149 -26 -186s-55 -69 -114 -94c-19 -9 -40 -14 -64 -14c-29 0 -49 5 -60 16c-7 5 -10 13 -10 24c0 13 7 25 20 34c13 8 44 25 51 29s28 18 32 29c8 18 17 44 15 90c0 13 -17 18 -52 19c-17 1 -30 2 -38 3c-16 9 -25 16 -26 20c0 15 0 46 1 93s1 77 1 89
c0 45 5 52 34 52z" />
    <glyph glyph-name="uni0146" unicode="&#x146;" horiz-adv-x="880" 
d="M278 96c-3 -75 -15 -96 -74 -96h-110c-37 0 -42 5 -42 56c0 108 1 183 2 224c8 288 12 666 12 1134c4 34 1 30 30 34c36 4 74 6 114 6h70c20 0 32 -1 37 -4s10 -12 15 -28c63 -212 123 -417 182 -614l58 -186l4 202c0 21 3 103 9 246s9 245 9 308c0 36 15 54 46 54
c68 0 117 -1 148 -2c35 -3 42 -9 42 -30c0 -5 -2 -21 -2 -32c-5 -257 -8 -535 -8 -834c0 -44 0 -118 1 -223s1 -183 1 -235c0 -51 -11 -62 -64 -62c-40 0 -85 1 -136 4c-36 0 -55 2 -63 17c-7 12 -9 13 -17 37c-4 12 -7 22 -10 30c-36 100 -78 225 -125 376
s-84 262 -109 334l-4 -218c-1 -88 -4 -176 -8 -264s-7 -166 -8 -234zM326 -62c27 0 65 -4 102 -4c16 0 49 2 60 2c48 0 73 -9 76 -28c1 -8 2 -23 2 -46c0 -16 -1 -40 -2 -71s-2 -50 -2 -57c0 -87 -9 -149 -26 -186s-55 -69 -114 -94c-19 -9 -40 -14 -64 -14
c-29 0 -49 5 -60 16c-7 5 -10 13 -10 24c0 13 7 25 20 34c13 8 44 25 51 29s28 18 32 29c8 18 17 44 15 90c0 13 -17 18 -52 19c-17 1 -30 2 -38 3c-16 9 -25 16 -26 20c0 15 0 46 1 93s1 77 1 89c0 45 5 52 34 52z" />
    <glyph glyph-name="Ncaron" unicode="&#x147;" horiz-adv-x="952" 
d="M70 958c0 44 0 111 -1 201s-1 158 -1 205c0 33 4 54 13 62s28 12 57 12c11 0 45 -2 66 -2c32 0 49 -9 53 -14c2 -3 5 -11 10 -24s8 -23 9 -28l366 -860l16 828c0 29 0 55 6 74c5 15 13 22 34 22c11 0 37 0 78 1s69 1 84 1c32 0 32 -1 32 -30v-42v-84
c0 -109 0 -249 1 -419s1 -294 1 -371c0 -32 0 -82 1 -150s1 -121 1 -160c0 -13 0 -34 -1 -63s-1 -51 -1 -67c0 -35 -11 -52 -34 -52c-24 0 -60 3 -107 10s-82 11 -103 12c-48 3 -61 15 -80 60c-21 48 -51 117 -89 206s-60 141 -67 154l-120 284c-1 -224 -2 -339 -2 -344
c0 -37 0 -84 1 -140s1 -104 1 -144v-44c0 -45 -6 -52 -38 -52c-29 0 -85 3 -168 10c-32 3 -38 9 -38 30c0 77 1 140 4 188c11 256 16 499 16 730zM536 1514h-138c-30 0 -29 7 -36 28c-95 173 -145 264 -150 272c-12 21 -18 33 -18 36c0 7 9 10 26 10h128c29 0 33 -4 46 -28
c33 -61 51 -93 52 -94c11 -15 19 -22 24 -22c4 0 11 10 22 30c4 9 11 26 20 51s18 44 26 59c4 8 11 12 22 12c15 0 38 0 70 1s53 1 62 1s14 -2 14 -6c0 -1 -1 -7 -4 -18c-24 -68 -64 -163 -120 -286c-11 -21 -11 -37 -19 -40c-7 -5 -11 -6 -27 -6z" />
    <glyph glyph-name="ncaron" unicode="&#x148;" horiz-adv-x="880" 
d="M278 96c-3 -75 -15 -96 -74 -96h-110c-37 0 -42 5 -42 56c0 108 1 183 2 224c8 288 12 666 12 1134c4 34 1 30 30 34c36 4 74 6 114 6h70c20 0 32 -1 37 -4s10 -12 15 -28c63 -212 123 -417 182 -614l58 -186l4 202c0 21 3 103 9 246s9 245 9 308c0 36 15 54 46 54
c68 0 117 -1 148 -2c35 -3 42 -9 42 -30c0 -5 -2 -21 -2 -32c-5 -257 -8 -535 -8 -834c0 -44 0 -118 1 -223s1 -183 1 -235c0 -51 -11 -62 -64 -62c-40 0 -85 1 -136 4c-36 0 -55 2 -63 17c-7 12 -9 13 -17 37c-4 12 -7 22 -10 30c-36 100 -78 225 -125 376
s-84 262 -109 334l-4 -218c-1 -88 -4 -176 -8 -264s-7 -166 -8 -234zM512 1520h-138c-30 0 -29 7 -36 28c-95 173 -145 264 -150 272c-12 21 -18 33 -18 36c0 7 9 10 26 10h128c29 0 33 -4 46 -28c33 -61 51 -93 52 -94c11 -15 19 -22 24 -22c4 0 11 10 22 30
c4 9 11 26 20 51s18 44 26 59c4 8 11 12 22 12c15 0 38 0 70 1s53 1 62 1s14 -2 14 -6c0 -1 -1 -7 -4 -18c-24 -68 -64 -163 -120 -286c-11 -21 -11 -37 -19 -40c-7 -5 -11 -6 -27 -6z" />
    <glyph glyph-name="Eng" unicode="&#x14a;" horiz-adv-x="950" 
d="M70 958c0 44 0 111 -1 201s-1 158 -1 205c0 33 4 54 13 62s28 12 57 12c11 0 45 -2 66 -2c32 0 49 -9 53 -14c2 -3 5 -11 10 -24s8 -23 9 -28l366 -860c1 11 13 287 36 828c0 29 0 55 6 74c5 15 13 22 34 22c11 0 33 0 68 1s59 1 74 1c32 0 32 -1 32 -30v-42v-84
c0 -109 0 -249 1 -419s1 -294 1 -371c0 -32 0 -82 1 -150s1 -121 1 -160c0 -81 -3 -150 -10 -207s-19 -113 -38 -169c-37 -112 -115 -175 -238 -194c-7 -1 -15 -2 -26 -2c-24 0 -33 7 -35 26c-1 11 -1 36 -1 56l-2 132v4c-6 49 37 39 60 70c25 32 41 85 48 160
c-4 5 -8 13 -12 24c-44 97 -105 213 -184 346s-133 233 -164 298c-1 -224 -2 -339 -2 -344c0 -37 0 -84 1 -140s1 -104 1 -144v-44c0 -45 -6 -52 -38 -52c-29 0 -85 3 -168 10c-32 3 -38 9 -38 30c0 77 1 140 4 188c11 256 16 499 16 730z" />
    <glyph glyph-name="eng" unicode="&#x14b;" horiz-adv-x="868" 
d="M268 96c-1 -29 -3 -49 -4 -59s-7 -19 -16 -26s-24 -11 -44 -11h-110c-37 0 -42 5 -42 56c0 108 1 183 2 224c8 288 12 666 12 1134c4 34 1 30 30 34c36 4 71 6 104 6h70c20 0 32 -1 37 -4s10 -12 15 -28c63 -212 123 -417 182 -614l58 -186l4 202c0 21 3 103 9 246
s9 245 9 308c0 36 15 54 46 54c68 0 117 -1 148 -2c35 -3 42 -9 42 -30c0 -5 -2 -21 -2 -32c-5 -257 -8 -535 -8 -834v-458c0 -125 -23 -230 -70 -315s-119 -134 -218 -149c-7 -1 -15 -2 -26 -2c-29 0 -34 11 -34 46v16v20c-3 61 -4 107 -4 136c-6 49 37 39 60 70
c28 37 45 108 50 212c-39 108 -92 260 -161 456s-108 310 -119 342l-4 -220c-1 -93 -4 -204 -8 -331s-7 -214 -8 -261z" />
    <glyph glyph-name="Omacron" unicode="&#x14c;" horiz-adv-x="1236" 
d="M1194 780c0 -249 -55 -444 -165 -583s-253 -209 -429 -209c-179 0 -317 67 -415 202s-147 323 -147 566c0 191 55 353 166 488s255 202 432 202c169 0 305 -66 406 -198s152 -288 152 -468zM626 308c96 0 174 42 233 126s89 176 89 276c0 124 -27 231 -80 322
s-129 136 -228 136s-181 -41 -246 -123s-98 -185 -98 -309c0 -113 31 -213 94 -299s141 -129 236 -129zM814 1690c16 0 24 -16 24 -48v-2v-58c0 -24 -3 -39 -9 -44s-23 -8 -51 -8h-258c-23 0 -36 2 -41 7s-7 19 -7 43v72c0 24 8 36 24 36c32 0 86 0 161 1s128 1 157 1z" />
    <glyph glyph-name="omacron" unicode="&#x14d;" 
d="M1068 776c0 -264 -41 -463 -124 -597s-227 -201 -432 -201c-159 0 -278 64 -357 192s-119 299 -119 514c0 261 46 455 137 580s240 188 445 188c133 0 242 -66 325 -199s125 -292 125 -477zM838 696c0 88 -16 183 -49 282s-102 168 -187 168c-101 0 -181 -45 -238 -134
s-86 -195 -86 -316c0 -100 22 -194 67 -283s106 -133 185 -133c219 0 308 139 308 416zM742 1676c16 0 24 -16 24 -48v-2v-58c0 -24 -3 -39 -9 -44s-23 -8 -51 -8h-258c-23 0 -36 2 -41 7s-7 19 -7 43v72c0 24 8 36 24 36c32 0 86 0 161 1s128 1 157 1z" />
    <glyph glyph-name="Obreve" unicode="&#x14e;" horiz-adv-x="1236" 
d="M1194 780c0 -249 -55 -444 -165 -583s-253 -209 -429 -209c-179 0 -317 67 -415 202s-147 323 -147 566c0 191 55 353 166 488s255 202 432 202c169 0 305 -66 406 -198s152 -288 152 -468zM626 308c96 0 174 42 233 126s89 176 89 276c0 124 -27 231 -80 322
s-129 136 -228 136s-181 -41 -246 -123s-98 -185 -98 -309c0 -113 31 -213 94 -299s141 -129 236 -129zM402 1792h6c12 0 32 0 59 -1s48 -1 61 -1h8c13 0 14 1 14 -18v-8c0 -69 29 -104 86 -104c49 0 79 32 90 96c8 28 -4 37 26 34h90c15 0 22 -4 22 -12
c0 -75 -21 -138 -63 -189s-99 -77 -171 -77c-157 0 -236 101 -236 266v2c0 8 3 12 8 12z" />
    <glyph glyph-name="obreve" unicode="&#x14f;" 
d="M1068 776c0 -264 -41 -463 -124 -597s-227 -201 -432 -201c-159 0 -278 64 -357 192s-119 299 -119 514c0 261 46 455 137 580s240 188 445 188c133 0 242 -66 325 -199s125 -292 125 -477zM838 696c0 88 -16 183 -49 282s-102 168 -187 168c-101 0 -181 -45 -238 -134
s-86 -195 -86 -316c0 -100 22 -194 67 -283s106 -133 185 -133c219 0 308 139 308 416zM374 1796h6c12 0 32 0 59 -1s48 -1 61 -1h8c13 0 14 1 14 -18v-8c0 -69 29 -104 86 -104c49 0 79 32 90 96c8 28 -4 37 26 34h90c15 0 22 -4 22 -12c0 -75 -21 -138 -63 -189
s-99 -77 -171 -77c-157 0 -236 101 -236 266v2c0 8 3 12 8 12z" />
    <glyph glyph-name="Ohungarumlaut" unicode="&#x150;" horiz-adv-x="1236" 
d="M1194 780c0 -249 -55 -444 -165 -583s-253 -209 -429 -209c-179 0 -317 67 -415 202s-147 323 -147 566c0 191 55 353 166 488s255 202 432 202c169 0 305 -66 406 -198s152 -288 152 -468zM626 308c96 0 174 42 233 126s89 176 89 276c0 124 -27 231 -80 322
s-129 136 -228 136s-181 -41 -246 -123s-98 -185 -98 -309c0 -113 31 -213 94 -299s141 -129 236 -129zM788 1512h-4c-81 0 -122 3 -122 10c0 4 3 11 8 20c12 23 30 58 55 105s42 81 53 101c13 22 8 38 42 36c19 0 45 -2 80 -6s52 -9 52 -14l-14 -24
c-11 -17 -52 -84 -124 -200c-16 -24 -14 -28 -26 -28zM558 1512h-4c-81 0 -122 3 -122 10c0 4 3 11 8 20c12 23 30 58 55 105s42 81 53 101c13 22 8 38 42 36c19 0 45 -2 80 -6s52 -9 52 -14l-14 -24c-11 -17 -52 -84 -124 -200c-16 -24 -14 -28 -26 -28z" />
    <glyph glyph-name="ohungarumlaut" unicode="&#x151;" 
d="M1068 776c0 -264 -41 -463 -124 -597s-227 -201 -432 -201c-159 0 -278 64 -357 192s-119 299 -119 514c0 261 46 455 137 580s240 188 445 188c133 0 242 -66 325 -199s125 -292 125 -477zM838 696c0 88 -16 183 -49 282s-102 168 -187 168c-101 0 -181 -45 -238 -134
s-86 -195 -86 -316c0 -100 22 -194 67 -283s106 -133 185 -133c219 0 308 139 308 416zM730 1512h-4c-81 0 -122 3 -122 10c0 4 3 11 8 20c12 23 30 58 55 105s42 81 53 101c13 22 8 38 42 36c19 0 45 -2 80 -6s52 -9 52 -14l-14 -24c-11 -17 -52 -84 -124 -200
c-16 -24 -14 -28 -26 -28zM500 1512h-4c-81 0 -122 3 -122 10c0 4 3 11 8 20c12 23 30 58 55 105s42 81 53 101c13 22 8 38 42 36c19 0 45 -2 80 -6s52 -9 52 -14l-14 -24c-11 -17 -52 -84 -124 -200c-16 -24 -14 -28 -26 -28z" />
    <glyph glyph-name="OE" unicode="&#x152;" horiz-adv-x="1556" 
d="M1372 836c40 0 50 -6 50 -38v-186c0 -17 -9 -26 -26 -26c-69 -3 -121 -4 -156 -4c-45 -3 -52 -14 -52 -62v-214c0 -36 21 -54 62 -54c-3 0 177 4 212 4c19 0 30 -2 34 -7s6 -20 6 -45l4 -160c0 -37 -8 -46 -32 -46c-5 0 -29 2 -40 2h-160c-83 0 -167 4 -252 12
c-64 5 -83 32 -86 96c-96 -80 -208 -120 -336 -120c-179 0 -317 69 -415 206s-147 328 -147 572c0 184 61 346 183 485s260 209 415 209c115 0 220 -41 316 -122v2c1 45 7 73 16 84s35 16 78 16c25 0 64 0 115 -1s88 -1 109 -1c4 0 28 0 71 1s77 1 101 1c28 0 45 -4 50 -11
s9 -28 12 -63c0 -3 1 -23 3 -62s3 -67 3 -84c0 -37 -11 -51 -62 -54c-93 -5 -165 -8 -216 -8c-24 0 -48 -18 -48 -50c0 -28 0 -63 1 -105s1 -74 1 -97l6 -54c7 -12 21 -18 42 -18c11 0 30 0 58 1s55 1 80 1zM940 734c-7 112 -36 207 -87 285s-122 117 -213 117
c-97 0 -178 -40 -241 -121s-95 -182 -95 -303c0 -111 30 -204 91 -281s138 -115 231 -115c181 0 291 112 312 304c0 13 0 33 1 58s1 44 1 56z" />
    <glyph glyph-name="oe" unicode="&#x153;" horiz-adv-x="1362" 
d="M1304 1410v-14c0 -25 1 -61 2 -106s2 -80 2 -104c0 -20 -14 -30 -42 -30h-22c-20 0 -90 2 -112 2c-39 0 -58 -11 -58 -32c0 -19 -1 -66 -2 -142s-2 -124 -2 -144c0 -15 13 -22 40 -22c17 0 46 1 86 4s68 4 84 4c12 0 14 -8 17 -20c1 -5 1 -23 1 -28l6 -120
c0 -19 1 -27 -11 -31s-12 -2 -39 -5h-26h-50h-100c-11 0 -10 -3 -10 -30v-38v-238c0 -16 15 -24 46 -24c43 0 114 -4 162 -4c21 0 32 -11 32 -34v-71v-71v-72c0 -20 -2 -26 -11 -30c-4 -4 -19 -6 -33 -6c-49 -5 -107 -8 -172 -8c-27 0 -67 1 -121 2s-95 2 -123 2
c-45 0 -50 6 -50 38v4c-77 -43 -173 -64 -286 -64c-159 0 -278 64 -357 192s-119 299 -119 514c0 261 46 455 137 580s240 188 445 188c67 0 129 -19 188 -56c3 37 9 42 36 42c20 0 47 1 80 2s59 2 78 2c61 0 148 -1 260 -4c40 -3 44 -7 44 -28zM800 446c1 55 2 136 3 245
s1 190 1 245c-43 140 -110 210 -202 210c-101 0 -181 -45 -238 -134s-86 -195 -86 -316c0 -100 22 -194 67 -283s106 -133 185 -133c135 0 225 55 270 166z" />
    <glyph glyph-name="Racute" unicode="&#x154;" horiz-adv-x="848" 
d="M368 758h30c52 0 90 31 115 93s37 134 37 217c0 112 -50 168 -150 168c-53 0 -80 -12 -80 -36c0 -35 -1 -103 -3 -204s-3 -169 -3 -202c0 -32 14 -36 54 -36zM186 1440c21 0 49 1 84 2s63 2 86 2c301 0 452 -113 452 -338c0 -228 -75 -402 -226 -522
c-19 -13 -28 -23 -28 -30c0 -5 2 -10 6 -14c5 -5 36 -68 92 -188s98 -212 126 -276c16 -35 24 -55 24 -60c0 -13 -17 -20 -50 -20c-40 -1 -91 -2 -154 -2h-22c-21 0 -22 1 -38 36c-41 95 -86 190 -134 286s-83 155 -104 176c-7 0 -10 -20 -10 -60l4 -76c0 -13 0 -32 1 -56
s1 -41 1 -52c0 -7 2 -66 6 -178v-42c0 -19 -9 -28 -26 -28h-18c-35 0 -76 2 -124 6c-36 3 -58 8 -67 17s-13 25 -13 49v206c0 109 3 273 8 492s8 381 8 488c0 20 1 53 4 98c3 37 8 61 17 71s26 15 53 15c8 0 31 -2 42 -2zM474 1520h-4c-117 0 -176 3 -176 10c0 4 3 11 8 20
c12 23 30 58 55 105s42 81 53 101c13 22 8 38 42 36c24 0 61 -2 112 -6s76 -9 76 -14l-14 -24c-56 -88 -98 -155 -126 -200c-16 -24 -14 -28 -26 -28z" />
    <glyph glyph-name="racute" unicode="&#x155;" horiz-adv-x="834" 
d="M780 18c-17 0 -49 2 -96 6s-79 6 -98 6c-43 0 -59 15 -78 76l-146 488c-37 -4 -57 -7 -58 -8v-120v-392c1 -43 -3 -61 -50 -66c-36 0 -95 5 -176 14c-20 1 -30 23 -30 66c0 143 4 358 13 647s13 510 13 663c0 45 10 56 42 56c35 0 88 0 161 -1s127 -1 163 -1
c97 0 180 -35 248 -105s102 -169 102 -297c0 -131 -31 -241 -68 -301c-19 -30 -37 -55 -56 -74c-37 -39 -68 -54 -68 -57c0 -24 9 -45 22 -74l12 -20c20 -49 49 -127 86 -234s64 -180 80 -220c7 -17 10 -29 10 -34c0 -12 -9 -18 -28 -18zM300 1216v-154c0 -21 1 -65 3 -131
s3 -110 3 -133c0 -13 23 -20 70 -20c96 0 170 67 170 216c0 73 -16 133 -47 179s-69 69 -113 69c-57 0 -86 -9 -86 -26zM456 1516h-4c-117 0 -176 3 -176 10c0 4 3 11 8 20c12 23 30 58 55 105s42 81 53 101c13 22 8 38 42 36c24 0 61 -2 112 -6s76 -9 76 -14l-14 -24
c-56 -88 -98 -155 -126 -200c-16 -24 -14 -28 -26 -28z" />
    <glyph glyph-name="uni0156" unicode="&#x156;" horiz-adv-x="848" 
d="M368 758h30c52 0 90 31 115 93s37 134 37 217c0 112 -50 168 -150 168c-53 0 -80 -12 -80 -36c0 -35 -1 -103 -3 -204s-3 -169 -3 -202c0 -32 14 -36 54 -36zM186 1440c21 0 49 1 84 2s63 2 86 2c301 0 452 -113 452 -338c0 -228 -75 -402 -226 -522
c-19 -13 -28 -23 -28 -30c0 -5 2 -10 6 -14c5 -5 36 -68 92 -188s98 -212 126 -276c16 -35 24 -55 24 -60c0 -13 -17 -20 -50 -20c-40 -1 -91 -2 -154 -2h-22c-21 0 -22 1 -38 36c-41 95 -86 190 -134 286s-83 155 -104 176c-7 0 -10 -20 -10 -60l4 -76c0 -13 0 -32 1 -56
s1 -41 1 -52c0 -7 2 -66 6 -178v-42c0 -19 -9 -28 -26 -28h-18c-35 0 -76 2 -124 6c-36 3 -58 8 -67 17s-13 25 -13 49v206c0 109 3 273 8 492s8 381 8 488c0 20 1 53 4 98c3 37 8 61 17 71s26 15 53 15c8 0 31 -2 42 -2zM340 -56c27 0 65 -4 102 -4c16 0 49 2 60 2
c48 0 73 -9 76 -28c1 -8 2 -23 2 -46c0 -16 -1 -40 -2 -71s-2 -50 -2 -57c0 -87 -9 -149 -26 -186s-55 -69 -114 -94c-19 -9 -40 -14 -64 -14c-29 0 -49 5 -60 16c-7 5 -10 13 -10 24c0 13 7 25 20 34c13 8 44 25 51 29s28 18 32 29c8 18 17 44 15 90c0 13 -17 18 -52 19
c-17 1 -30 2 -38 3c-16 9 -25 16 -26 20c0 15 0 46 1 93s1 77 1 89c0 45 5 52 34 52z" />
    <glyph glyph-name="uni0157" unicode="&#x157;" horiz-adv-x="834" 
d="M780 18c-17 0 -49 2 -96 6s-79 6 -98 6c-43 0 -59 15 -78 76l-146 488c-37 -4 -57 -7 -58 -8v-120v-392c1 -43 -3 -61 -50 -66c-36 0 -95 5 -176 14c-20 1 -30 23 -30 66c0 143 4 358 13 647s13 510 13 663c0 45 10 56 42 56c35 0 88 0 161 -1s127 -1 163 -1
c97 0 180 -35 248 -105s102 -169 102 -297c0 -131 -31 -241 -68 -301c-19 -30 -37 -55 -56 -74c-37 -39 -68 -54 -68 -57c0 -24 9 -45 22 -74l12 -20c20 -49 49 -127 86 -234s64 -180 80 -220c7 -17 10 -29 10 -34c0 -12 -9 -18 -28 -18zM300 1216v-154c0 -21 1 -65 3 -131
s3 -110 3 -133c0 -13 23 -20 70 -20c96 0 170 67 170 216c0 73 -16 133 -47 179s-69 69 -113 69c-57 0 -86 -9 -86 -26zM304 -54c27 0 65 -4 102 -4c16 0 49 2 60 2c48 0 73 -9 76 -28c1 -8 2 -23 2 -46c0 -16 -1 -40 -2 -71s-2 -50 -2 -57c0 -87 -9 -149 -26 -186
s-55 -69 -114 -94c-19 -9 -40 -14 -64 -14c-29 0 -49 5 -60 16c-7 5 -10 13 -10 24c0 13 7 25 20 34c13 8 44 25 51 29s28 18 32 29c8 18 17 44 15 90c0 13 -17 18 -52 19c-17 1 -30 2 -38 3c-16 9 -25 16 -26 20c0 15 0 46 1 93s1 77 1 89c0 45 5 52 34 52z" />
    <glyph glyph-name="Rcaron" unicode="&#x158;" horiz-adv-x="848" 
d="M368 758h30c52 0 90 31 115 93s37 134 37 217c0 112 -50 168 -150 168c-53 0 -80 -12 -80 -36c0 -35 -1 -103 -3 -204s-3 -169 -3 -202c0 -32 14 -36 54 -36zM186 1440c21 0 49 1 84 2s63 2 86 2c301 0 452 -113 452 -338c0 -228 -75 -402 -226 -522
c-19 -13 -28 -23 -28 -30c0 -5 2 -10 6 -14c5 -5 36 -68 92 -188s98 -212 126 -276c16 -35 24 -55 24 -60c0 -13 -17 -20 -50 -20c-40 -1 -91 -2 -154 -2h-22c-21 0 -22 1 -38 36c-41 95 -86 190 -134 286s-83 155 -104 176c-7 0 -10 -20 -10 -60l4 -76c0 -13 0 -32 1 -56
s1 -41 1 -52c0 -7 2 -66 6 -178v-42c0 -19 -9 -28 -26 -28h-18c-35 0 -76 2 -124 6c-36 3 -58 8 -67 17s-13 25 -13 49v206c0 109 3 273 8 492s8 381 8 488c0 20 1 53 4 98c3 37 8 61 17 71s26 15 53 15c8 0 31 -2 42 -2zM500 1520h-138c-30 0 -29 7 -36 28
c-95 173 -145 264 -150 272c-12 21 -18 33 -18 36c0 7 9 10 26 10h128c29 0 33 -4 46 -28c33 -61 51 -93 52 -94c11 -15 19 -22 24 -22c4 0 11 10 22 30c4 9 11 26 20 51s18 44 26 59c4 8 11 12 22 12c15 0 38 0 70 1s53 1 62 1s14 -2 14 -6c0 -1 -1 -7 -4 -18
c-24 -68 -64 -163 -120 -286c-11 -21 -11 -37 -19 -40c-7 -5 -11 -6 -27 -6z" />
    </font>
</defs>
</svg>
