<?xml version="1.0" standalone="no"?>
<!DOCTYPE svg PUBLIC "-//W3C//DTD SVG 1.1//EN" "http://www.w3.org/Graphics/SVG/1.1/DTD/svg11.dtd" >
<svg xmlns="http://www.w3.org/2000/svg" xmlns:xlink="http://www.w3.org/1999/xlink" version="1.1">
<metadata>
Created by FontForge 20190801 at Thu Jan 17 21:33:44 2013
 By Jimmy Wärting
Copyright (c) 2012 by Hannes von Dhren. All rights reserved.
</metadata>
<defs>
<font id="BrandonText-Medium" horiz-adv-x="600" >
  <font-face 
    font-family="Brandon Text Medium"
    font-weight="420"
    font-stretch="normal"
    units-per-em="1000"
    panose-1="2 11 6 3 2 2 3 6 2 3"
    ascent="700"
    descent="-300"
    x-height="462"
    cap-height="700"
    bbox="-147.414 -300.634 1189 1034.38"
    underline-thickness="50"
    underline-position="-100"
    stemh="95"
    stemv="100"
    unicode-range="U+000D-FB02"
  />
<missing-glyph horiz-adv-x="599" 
d="M50 30v640c0 21 9 30 30 30h439c21 0 30 -9 30 -30v-640c0 -21 -9 -30 -30 -30h-439c-21 0 -30 9 -30 30zM262 314c0 -7 7 -12 14 -12h36c9 0 15 4 15 13v26c0 48 105 63 105 150c0 65 -54 111 -125 111c-87 0 -130 -61 -130 -61c-4 -6 -6 -13 0 -18l22 -22
c6 -4 11 -4 17 0c13 12 36 41 84 41c40 0 61 -25 61 -52c0 -63 -99 -72 -99 -147v-29zM245 156c0 -26 22 -48 48 -48c27 0 49 22 49 48s-22 48 -49 48c-26 0 -48 -22 -48 -48z" />
    <glyph glyph-name="fi" unicode="fi" horiz-adv-x="589" 
d="M109 22v347h-60c-13 0 -22 11 -22 22v49c0 13 9 22 22 22h60v46c0 122 68 202 192 202c77 0 139 -36 163 -51c9 -6 11 -20 6 -29l-28 -50c-8 -14 -18 -12 -30 -5c-21 12 -59 40 -111 40c-66 0 -92 -37 -92 -109v-44h289c12 0 22 -11 22 -22v-418c0 -12 -10 -22 -22 -22
h-56c-11 0 -22 10 -22 22v347h-211v-347c0 -15 -8 -22 -22 -22h-60c-11 0 -18 10 -18 22z" />
    <glyph glyph-name="fl" unicode="fl" horiz-adv-x="607" 
d="M109 22v347h-62c-13 0 -22 11 -22 23v48c0 13 9 22 22 22h62v46c0 126 82 202 195 202c96 0 149 -60 149 -60l10 30c5 11 11 20 25 20h24c11 0 22 -11 22 -22v-656c0 -12 -11 -22 -22 -22h-56c-12 0 -22 10 -22 22v524c-4 6 -48 69 -129 69c-51 0 -96 -30 -96 -106v-47
h110c13 0 22 -9 22 -22v-48c0 -12 -9 -23 -22 -23h-110v-347c0 -12 -11 -22 -22 -22h-57c-11 0 -21 10 -21 22z" />
    <glyph glyph-name="f_f" unicode="ff" horiz-adv-x="693" 
d="M109 22v347h-61c-13 0 -22 11 -22 22v49c0 13 9 22 22 22h61v32c0 121 84 206 211 206c72 0 118 -28 141 -48c27 39 71 58 129 58c63 0 112 -27 133 -46c7 -7 8 -19 4 -26l-29 -43c-6 -11 -18 -12 -29 -4c-19 14 -48 24 -77 24c-50 0 -72 -27 -72 -105v-48h131
c13 0 22 -9 22 -22v-49c0 -11 -9 -22 -22 -22h-131v-347c0 -12 -10 -22 -22 -22h-56c-12 0 -22 10 -22 22v347h-211v-347c0 -12 -11 -22 -22 -22h-56c-11 0 -22 10 -22 22zM209 462h211v51c0 22 0 39 4 53c-16 17 -53 40 -105 40c-68 0 -110 -41 -110 -112v-32z" />
    <glyph glyph-name="f_f_i" unicode="ffi" horiz-adv-x="900" 
d="M608 710c70 0 143 -36 167 -51c9 -6 11 -20 6 -29l-28 -50c-8 -14 -18 -12 -30 -5c-21 12 -59 40 -111 40c-66 0 -92 -37 -92 -109v-44h289c12 0 22 -11 22 -22v-418c0 -12 -10 -22 -22 -22h-56c-11 0 -22 10 -22 22v347h-211v-347c0 -12 -10 -22 -22 -22h-56
c-12 0 -22 10 -22 22v347h-211v-347c0 -12 -11 -22 -22 -22h-56c-11 0 -22 10 -22 22v347h-61c-13 0 -22 11 -22 22v49c0 13 9 22 22 22h61v32c0 121 84 206 211 206c72 0 123 -28 146 -48c27 36 77 58 142 58zM209 462h211v51c0 22 3 40 7 54c-16 17 -56 39 -108 39
c-68 0 -110 -41 -110 -112v-32z" />
    <glyph glyph-name="f_f_l" unicode="ffl" horiz-adv-x="918" 
d="M615 710c96 0 149 -60 149 -60l10 30c5 11 11 20 25 20h24c11 0 22 -11 22 -22v-656c0 -12 -11 -22 -22 -22h-56c-12 0 -22 10 -22 22v524c-4 6 -48 69 -129 69c-51 0 -96 -30 -96 -106v-47h110c13 0 22 -9 22 -22v-48c0 -12 -9 -23 -22 -23h-110v-347
c0 -12 -10 -22 -22 -22h-56c-12 0 -22 10 -22 22v347h-211v-347c0 -12 -11 -22 -22 -22h-56c-11 0 -22 10 -22 22v347h-61c-13 0 -22 11 -22 22v49c0 13 9 22 22 22h61v32c0 121 84 206 211 206c72 0 125 -28 148 -48c31 34 84 58 147 58zM209 462h211v51c0 22 2 39 6 53
c-16 17 -55 40 -107 40c-68 0 -110 -41 -110 -112v-32z" />
    <glyph glyph-name="f_f_h" unicode="ffh" horiz-adv-x="1223" 
d="M209 462h211v51c0 22 2 39 6 53c-16 17 -55 40 -107 40c-68 0 -110 -41 -110 -112v-32zM822 0h-55c-12 0 -22 10 -22 22v524c-4 6 -48 69 -129 69c-51 0 -96 -30 -96 -106v-47h110c13 0 22 -9 22 -22v-48c0 -12 -9 -23 -22 -23h-110v-347c0 -12 -10 -22 -22 -22h-56
c-12 0 -22 10 -22 22v347h-211v-347c0 -12 -11 -22 -22 -22h-56c-11 0 -22 10 -22 22v347h-61c-13 0 -22 11 -22 22v49c0 13 9 22 22 22h61v32c0 121 84 206 211 206c72 0 125 -28 148 -48c31 34 84 58 147 58c96 0 149 -60 149 -60l10 30c5 11 11 20 25 20h24
c11 0 22 -11 22 -22v-254c11 8 61 48 134 48c131 0 179 -92 179 -218v-232c0 -12 -11 -22 -22 -22h-56c-12 0 -22 10 -22 22v234c0 76 -32 121 -92 121c-71 0 -111 -47 -121 -67v-288c0 -13 -9 -22 -23 -22z" />
    <glyph glyph-name="f_k" unicode="fk" horiz-adv-x="862" 
d="M512 0h-56c-12 0 -22 10 -22 22v524c-4 6 -48 69 -129 69c-51 0 -96 -30 -96 -106v-47h110c13 0 22 -9 22 -22v-48c0 -12 -9 -23 -22 -23h-110v-347c0 -12 -11 -22 -22 -22h-57c-11 0 -21 10 -21 22v347h-62c-13 0 -22 11 -22 23v48c0 13 9 22 22 22h62v46
c0 126 82 202 195 202c96 0 149 -60 149 -60l10 30c5 11 11 20 25 20h24c11 0 22 -11 22 -22v-391l178 161c8 7 17 14 29 14h73c20 0 23 -22 12 -32l-187 -176l196 -224c9 -11 7 -30 -13 -30h-82c-9 0 -17 4 -21 9l-185 215v-202c0 -12 -11 -22 -22 -22z" />
    <glyph glyph-name="f_j" unicode="fj" horiz-adv-x="589" 
d="M420 -54v423h-211v-347c0 -15 -8 -22 -22 -22h-60c-11 0 -18 10 -18 22v347h-60c-13 0 -22 11 -22 22v49c0 13 9 22 22 22h60v46c0 122 68 202 192 202c77 0 139 -36 163 -51c9 -6 11 -20 6 -29l-28 -50c-8 -14 -18 -12 -30 -5c-21 12 -59 40 -111 40
c-66 0 -92 -37 -92 -109v-44h289c12 0 22 -11 22 -22v-482c0 -114 -53 -180 -116 -204c-14 -5 -28 -1 -35 12l-21 39c-8 14 -2 30 12 37c30 15 60 42 60 104z" />
    <glyph glyph-name="f_f_j" unicode="ffj" horiz-adv-x="900" 
d="M209 462h211v51c0 22 3 40 7 54c-16 17 -56 39 -108 39c-68 0 -110 -41 -110 -112v-32zM731 -54v423h-211v-347c0 -12 -10 -22 -22 -22h-56c-12 0 -22 10 -22 22v347h-211v-347c0 -12 -11 -22 -22 -22h-56c-11 0 -22 10 -22 22v347h-61c-13 0 -22 11 -22 22v49
c0 13 9 22 22 22h61v32c0 121 84 206 211 206c72 0 123 -28 146 -48c27 36 77 58 142 58c70 0 143 -36 167 -51c9 -6 11 -20 6 -29l-28 -50c-8 -14 -18 -12 -30 -5c-21 12 -59 40 -111 40c-66 0 -92 -37 -92 -109v-44h289c12 0 22 -11 22 -22v-482
c0 -114 -53 -180 -116 -204c-14 -5 -28 -1 -35 12l-21 39c-8 14 -2 30 12 37c30 15 60 42 60 104z" />
    <glyph glyph-name="f_b" unicode="fb" horiz-adv-x="920" 
d="M480 0h-24c-12 0 -22 10 -22 22v524c-4 6 -48 69 -129 69c-51 0 -96 -30 -96 -106v-47h110c13 0 22 -9 22 -22v-48c0 -12 -9 -23 -22 -23h-110v-347c0 -12 -11 -22 -22 -22h-57c-11 0 -21 10 -21 22v347h-62c-13 0 -22 11 -22 23v48c0 13 9 22 22 22h62v46
c0 126 82 202 195 202c96 0 149 -60 149 -60l10 30c5 11 11 20 25 20h24c11 0 22 -11 22 -22v-230c10 3 58 24 117 24c128 0 227 -106 227 -241c0 -132 -94 -242 -215 -242c-92 0 -152 65 -152 65l-10 -34c-3 -12 -10 -20 -21 -20zM534 151c6 -13 44 -67 114 -67
c75 0 130 69 130 147c0 79 -62 146 -138 146c-60 0 -106 -25 -106 -25v-201z" />
    <glyph glyph-name="f_f_k" unicode="ffk" horiz-adv-x="1173" 
d="M799 700h24c11 0 22 -11 22 -22v-391l178 161c8 7 17 14 29 14h73c20 0 23 -22 12 -32l-187 -176l196 -224c9 -11 7 -30 -13 -30h-82c-9 0 -17 4 -21 9l-185 215v-202c0 -12 -11 -22 -22 -22h-56c-12 0 -22 10 -22 22v524c-4 6 -48 69 -129 69c-51 0 -96 -30 -96 -106
v-47h110c13 0 22 -9 22 -22v-48c0 -12 -9 -23 -22 -23h-110v-347c0 -12 -10 -22 -22 -22h-56c-12 0 -22 10 -22 22v347h-211v-347c0 -12 -11 -22 -22 -22h-56c-11 0 -22 10 -22 22v347h-61c-13 0 -22 11 -22 22v49c0 13 9 22 22 22h61v32c0 121 84 206 211 206
c72 0 125 -28 148 -48c31 34 84 58 147 58c96 0 149 -60 149 -60l10 30c5 11 11 20 25 20zM209 462h211v51c0 22 2 39 6 53c-16 17 -55 40 -107 40c-68 0 -110 -41 -110 -112v-32z" />
    <glyph glyph-name="f_h" unicode="fh" horiz-adv-x="912" 
d="M511 0h-55c-12 0 -22 10 -22 22v524c-4 6 -48 69 -129 69c-51 0 -96 -30 -96 -106v-47h110c13 0 22 -9 22 -22v-48c0 -12 -9 -23 -22 -23h-110v-347c0 -12 -11 -22 -22 -22h-57c-11 0 -21 10 -21 22v347h-62c-13 0 -22 11 -22 23v48c0 13 9 22 22 22h62v46
c0 126 82 202 195 202c96 0 149 -60 149 -60l10 30c5 11 11 20 25 20h24c11 0 22 -11 22 -22v-254c11 8 61 48 134 48c131 0 179 -92 179 -218v-232c0 -12 -11 -22 -22 -22h-56c-12 0 -22 10 -22 22v234c0 76 -32 121 -92 121c-71 0 -111 -47 -121 -67v-288
c0 -13 -9 -22 -23 -22z" />
    <glyph glyph-name="f_f_b" unicode="ffb" horiz-adv-x="1231" 
d="M209 462h211v51c0 22 2 39 6 53c-16 17 -55 40 -107 40c-68 0 -110 -41 -110 -112v-32zM791 0h-24c-12 0 -22 10 -22 22v524c-4 6 -48 69 -129 69c-51 0 -96 -30 -96 -106v-47h110c13 0 22 -9 22 -22v-48c0 -12 -9 -23 -22 -23h-110v-347c0 -12 -10 -22 -22 -22h-56
c-12 0 -22 10 -22 22v347h-211v-347c0 -12 -11 -22 -22 -22h-56c-11 0 -22 10 -22 22v347h-61c-13 0 -22 11 -22 22v49c0 13 9 22 22 22h61v32c0 121 84 206 211 206c72 0 125 -28 148 -48c31 34 84 58 147 58c96 0 149 -60 149 -60l10 30c5 11 11 20 25 20h25
c11 0 22 -11 22 -22v-230c10 3 57 24 116 24c128 0 227 -106 227 -241c0 -132 -94 -242 -215 -242c-92 0 -152 65 -152 65l-10 -34c-3 -12 -10 -20 -21 -20zM845 151c6 -13 44 -67 114 -67c75 0 130 69 130 147c0 79 -62 146 -138 146c-60 0 -106 -25 -106 -25v-201z" />
    <glyph glyph-name=".notdef" horiz-adv-x="599" 
d="M50 30v640c0 21 9 30 30 30h439c21 0 30 -9 30 -30v-640c0 -21 -9 -30 -30 -30h-439c-21 0 -30 9 -30 30zM262 314c0 -7 7 -12 14 -12h36c9 0 15 4 15 13v26c0 48 105 63 105 150c0 65 -54 111 -125 111c-87 0 -130 -61 -130 -61c-4 -6 -6 -13 0 -18l22 -22
c6 -4 11 -4 17 0c13 12 36 41 84 41c40 0 61 -25 61 -52c0 -63 -99 -72 -99 -147v-29zM245 156c0 -26 22 -48 48 -48c27 0 49 22 49 48s-22 48 -49 48c-26 0 -48 -22 -48 -48z" />
    <glyph glyph-name=".null" horiz-adv-x="0" 
 />
    <glyph glyph-name=".null" horiz-adv-x="0" 
 />
    <glyph glyph-name="CR" unicode="&#xd;" horiz-adv-x="0" 
 />
    <glyph glyph-name="space" unicode=" " horiz-adv-x="240" 
 />
    <glyph glyph-name="exclam" unicode="!" horiz-adv-x="264" 
d="M121 272c-9 0 -18 8 -19 16l-29 279v114c0 10 9 19 19 19h80c10 0 19 -9 19 -19v-112l-29 -281c-1 -8 -10 -16 -19 -16h-22zM62 59c0 39 32 70 69 70c39 0 70 -31 70 -70c0 -38 -31 -69 -70 -69c-37 0 -69 31 -69 69z" />
    <glyph glyph-name="quotedbl" unicode="&#x22;" horiz-adv-x="352" 
d="M236 501c-10 0 -19 9 -19 19v161c0 10 9 19 19 19h57c13 0 22 -11 18 -25l-34 -159c-2 -8 -11 -15 -18 -15h-23zM75 501c-10 0 -19 9 -19 19v161c0 10 9 19 19 19h57c13 0 22 -11 18 -25l-34 -159c-2 -8 -11 -15 -18 -15h-23z" />
    <glyph glyph-name="numbersign" unicode="#" horiz-adv-x="564" 
d="M114 22l24 169h-70c-11 0 -19 7 -19 17v14c0 11 8 18 19 18h77l24 167h-72c-10 0 -19 7 -19 17v14c0 10 9 18 19 18h78l32 228c1 8 9 16 18 16h11c11 0 20 -10 18 -22l-30 -222h154l31 228c1 8 10 16 19 16h9c12 0 21 -10 19 -22l-30 -222h67c11 0 19 -8 19 -18v-14
c0 -10 -7 -17 -18 -17h-74l-24 -167h68c10 0 19 -7 19 -18v-14c0 -10 -8 -17 -18 -17h-76l-25 -175c-1 -9 -9 -16 -19 -16h-10c-12 0 -20 10 -19 22l25 169h-156l-24 -175c-1 -9 -10 -16 -19 -16h-9c-13 0 -21 10 -19 22zM193 240h156l22 167h-154z" />
    <glyph glyph-name="dollar" unicode="$" 
d="M89 69c-8 8 -16 15 -5 32l29 42c8 11 20 16 31 7c5 -5 65 -55 133 -68v226c-87 34 -193 91 -193 210c0 107 79 182 194 191v32c0 11 9 19 19 19h10c10 0 17 -8 17 -19v-33c88 -7 155 -51 164 -57c8 -5 15 -19 6 -34c-18 -26 -36 -64 -60 -48c-6 3 -59 37 -110 49v-220
c104 -44 203 -99 203 -219c0 -104 -83 -179 -203 -188v-104c0 -12 -10 -18 -21 -18s-26 3 -26 18v104c-106 8 -173 64 -188 78zM277 418v202c-68 -7 -96 -53 -96 -87c0 -51 34 -85 96 -115zM324 78c55 7 98 38 98 92c0 48 -34 83 -98 116v-208z" />
    <glyph glyph-name="percent" unicode="%" horiz-adv-x="686" 
d="M182 441c-75 0 -135 60 -135 135s60 135 135 135c74 0 135 -60 135 -135s-61 -135 -135 -135zM135 27l343 663c4 6 12 10 17 10h33c15 0 24 -14 17 -27l-345 -663c-2 -4 -12 -10 -17 -10h-31c-15 0 -24 14 -17 27zM182 512c34 0 62 28 62 64c0 33 -28 62 -62 62
c-35 0 -63 -29 -63 -62c0 -36 28 -64 63 -64zM370 124c0 75 60 135 135 135c74 0 135 -60 135 -135s-61 -135 -135 -135c-75 0 -135 60 -135 135zM441 124c0 -35 28 -63 64 -63c33 0 62 28 62 63c0 34 -29 62 -62 62c-36 0 -64 -28 -64 -62z" />
    <glyph glyph-name="ampersand" unicode="&#x26;" horiz-adv-x="667" 
d="M56 176c0 120 103 179 139 200v2l-23 25c-37 41 -69 83 -69 142c0 94 81 165 183 165c110 0 179 -72 179 -159c0 -96 -96 -160 -135 -187l140 -140c22 42 35 93 38 144c1 22 9 28 28 24l41 -8c23 -4 18 -22 17 -31c-8 -75 -36 -147 -61 -192l93 -90c12 -12 21 -23 -2 -46
l-26 -26c-12 -11 -28 -13 -43 3l-79 80c-36 -41 -108 -92 -218 -92c-126 0 -202 86 -202 186zM272 423c30 18 104 57 104 124c0 43 -35 86 -95 86c-49 0 -89 -35 -89 -88c0 -38 25 -67 58 -100zM151 182c0 -63 51 -108 115 -108c72 0 121 38 150 72l-167 176
c-31 -19 -98 -61 -98 -140z" />
    <glyph glyph-name="quotesingle" unicode="'" horiz-adv-x="191" 
d="M75 501c-10 0 -19 9 -19 19v161c0 10 9 19 19 19h57c13 0 22 -11 18 -25l-34 -159c-2 -8 -11 -15 -18 -15h-23z" />
    <glyph glyph-name="parenleft" unicode="(" horiz-adv-x="338" 
d="M299 -2c7 -2 13 -9 11 -18l-2 -46c-1 -9 -8 -13 -19 -13c-114 7 -242 90 -242 394s128 387 242 393c11 1 18 -4 19 -13l2 -46c2 -9 -4 -17 -11 -18c-112 -25 -155 -135 -155 -316c0 -182 43 -291 155 -317z" />
    <glyph glyph-name="parenright" unicode=")" horiz-adv-x="338" 
d="M28 -19c-1 8 4 16 11 17c112 26 156 135 156 317c0 181 -44 291 -156 316c-7 1 -12 9 -11 18l3 46c0 9 7 14 18 13c114 -6 242 -89 242 -393s-128 -387 -242 -394c-11 0 -18 4 -18 13z" />
    <glyph glyph-name="asterisk" unicode="*" horiz-adv-x="418" 
d="M198 392c-10 0 -19 9 -19 19l2 85l-70 -49c-8 -6 -21 -3 -26 5l-12 19c-6 9 -3 21 5 27l79 48l-80 49c-8 6 -10 18 -5 26s8 13 13 19c5 8 17 11 25 5l71 -49l-2 85c0 10 9 19 19 19h22c10 0 19 -9 19 -19l-2 -85l70 51c8 5 20 2 26 -6l12 -19c5 -9 4 -20 -5 -26l-80 -50
l80 -50c10 -6 11 -18 6 -26l-13 -19c-5 -9 -17 -11 -26 -6l-70 50l2 -84c0 -10 -9 -19 -19 -19h-22z" />
    <glyph glyph-name="plus" unicode="+" 
d="M260 153v153h-154c-10 0 -19 9 -19 19v42c0 10 9 19 19 19h154v155c0 10 9 18 19 18h42c10 0 19 -8 19 -18v-155h154c10 0 18 -9 18 -19v-42c0 -10 -8 -19 -18 -19h-154v-153c0 -10 -9 -18 -19 -18h-42c-10 0 -19 8 -19 18z" />
    <glyph glyph-name="comma" unicode="," horiz-adv-x="255" 
d="M46 71c0 39 31 69 74 69c51 0 90 -47 90 -122c0 -88 -37 -152 -75 -198c-7 -7 -14 -8 -21 -2l-25 20c-7 7 -5 14 1 21c29 36 54 82 54 128c0 12 -1 21 -5 27c-8 -7 -20 -11 -33 -11c-39 0 -60 31 -60 68z" />
    <glyph glyph-name="hyphen" unicode="-" horiz-adv-x="376" 
d="M80 206c-11 0 -19 8 -19 18v43c0 11 8 19 19 19h216c11 0 19 -8 19 -19v-43c0 -10 -8 -18 -19 -18h-216z" />
    <glyph glyph-name="period" unicode="." horiz-adv-x="252" 
d="M46 69c0 45 36 81 79 81c45 0 81 -36 81 -81c0 -44 -36 -80 -81 -80c-43 0 -79 36 -79 80z" />
    <glyph glyph-name="slash" unicode="/" horiz-adv-x="395" 
d="M58 25l196 662c2 7 10 13 18 13h47c14 0 22 -11 18 -25l-195 -662c-2 -7 -11 -13 -18 -13h-48c-13 0 -22 11 -18 25z" />
    <glyph glyph-name="zero" unicode="0" horiz-adv-x="642" 
d="M321 -10c-162 0 -255 135 -255 360c0 226 93 360 255 360s255 -134 255 -360c0 -225 -93 -360 -255 -360zM321 83c96 0 151 96 151 267c0 169 -55 265 -151 265s-151 -96 -151 -265c0 -171 55 -267 151 -267z" />
    <glyph glyph-name="one" unicode="1" horiz-adv-x="355" 
d="M153 20v523l-82 -39c-9 -4 -20 -2 -23 7l-12 36c-3 8 -1 16 3 21l131 119c11 9 21 13 35 13h31c10 0 18 -9 18 -19v-661c0 -11 -8 -20 -18 -20h-63c-11 0 -20 9 -20 20z" />
    <glyph glyph-name="two" unicode="2" horiz-adv-x="551" 
d="M204 91v-2h260c11 0 20 -6 20 -20v-49c0 -13 -9 -20 -20 -20h-398c-12 0 -20 9 -20 20v8c0 13 0 18 12 32c75 87 175 209 248 294c51 58 78 108 78 150c0 52 -36 112 -127 112c-56 0 -103 -39 -131 -69c-8 -8 -19 -8 -27 0l-35 35c-7 6 -9 19 -1 27c0 0 77 101 199 101
c148 0 226 -94 226 -202c0 -79 -43 -133 -99 -200c-54 -65 -125 -148 -185 -217z" />
    <glyph glyph-name="three" unicode="3" horiz-adv-x="560" 
d="M52 81c-6 8 -6 19 1 25l40 37c10 9 20 7 28 -2c32 -33 71 -64 140 -64c67 0 129 36 129 116c0 67 -52 116 -163 116h-57c-12 0 -20 7 -20 22v44c0 15 6 22 21 22h57c97 0 146 48 146 109c0 69 -57 112 -118 112c-62 0 -99 -35 -119 -58c-6 -8 -18 -10 -27 -2l-38 34
c-8 7 -7 20 0 27c0 0 78 91 190 91c120 0 216 -73 216 -189c0 -79 -60 -139 -106 -161v-3c48 -20 124 -70 124 -166c0 -112 -90 -201 -236 -201c-124 0 -185 65 -208 91z" />
    <glyph glyph-name="four" unicode="4" horiz-adv-x="632" 
d="M49 153c-11 0 -20 10 -20 20v42c0 14 4 25 13 36l364 446c8 10 16 13 31 13h27c10 0 20 -9 20 -20v-451h83c11 0 20 -8 20 -19v-48c0 -10 -9 -19 -20 -19h-83v-133c0 -11 -9 -20 -19 -20h-61c-10 0 -19 9 -19 20v133h-336zM143 241v-2h246v299h-2z" />
    <glyph glyph-name="five" unicode="5" horiz-adv-x="565" 
d="M73 75c-14 16 -15 23 -2 35s25 25 38 36c8 7 16 10 25 0c35 -39 75 -67 138 -67c89 0 145 72 145 146c0 72 -48 131 -143 131h-158c-20 0 -32 20 -32 36v289c0 10 8 19 20 19h318c11 0 20 -9 20 -19v-51c0 -10 -9 -19 -20 -19h-245v-163h104c151 0 237 -88 237 -222
c0 -129 -103 -236 -244 -236c-113 0 -175 54 -201 85z" />
    <glyph glyph-name="six" unicode="6" horiz-adv-x="580" 
d="M59 278c0 287 247 404 341 440c13 4 22 -1 26 -12l18 -43c5 -12 1 -23 -19 -29c-47 -16 -211 -96 -245 -223c8 5 68 38 137 38c109 0 215 -81 215 -223c0 -130 -105 -236 -229 -236c-165 0 -244 129 -244 288zM301 82c77 0 136 65 136 143c0 77 -60 140 -137 140
c-74 0 -126 -53 -141 -79c-8 -86 30 -204 142 -204z" />
    <glyph glyph-name="seven" unicode="7" horiz-adv-x="508" 
d="M359 608v2h-303c-10 0 -19 9 -19 19v52c0 10 9 19 19 19h422c11 0 19 -6 19 -16c0 -8 -2 -14 -8 -27l-295 -629c-9 -21 -14 -28 -40 -28h-47c-14 0 -24 9 -24 20c0 8 0 11 4 19z" />
    <glyph glyph-name="eight" unicode="8" horiz-adv-x="604" 
d="M64 187c0 90 70 151 124 172v4c-49 25 -106 78 -106 158c0 114 95 189 219 189c126 0 220 -75 220 -189c0 -79 -62 -132 -106 -157v-5c53 -21 125 -83 125 -172c0 -112 -91 -197 -240 -197c-145 0 -236 85 -236 197zM302 408c79 11 115 54 115 109c0 63 -51 108 -119 108
c-61 0 -112 -45 -112 -108c0 -56 35 -97 116 -109zM171 185c0 -68 62 -112 130 -112c73 0 131 43 131 112c0 55 -47 112 -130 124c-84 -12 -131 -69 -131 -124z" />
    <glyph glyph-name="nine" unicode="9" horiz-adv-x="580" 
d="M136 41c-6 12 -1 24 18 30c47 15 213 91 247 217c-9 -6 -69 -38 -137 -38c-110 0 -216 82 -216 224c0 130 105 236 231 236c163 0 242 -130 242 -290c0 -287 -246 -400 -341 -438c-13 -4 -22 2 -26 13zM280 334c82 0 134 60 141 78c9 87 -30 205 -142 205
c-75 0 -136 -66 -136 -142c0 -78 61 -141 137 -141z" />
    <glyph glyph-name="colon" unicode=":" horiz-adv-x="271" 
d="M136 323c-41 0 -75 34 -75 75s34 74 75 74c42 0 74 -33 74 -74s-32 -75 -74 -75zM61 63c0 42 34 76 75 76c42 0 74 -34 74 -76c0 -40 -32 -74 -74 -74c-41 0 -75 34 -75 74z" />
    <glyph glyph-name="semicolon" unicode=";" horiz-adv-x="275" 
d="M136 323c-41 0 -75 34 -75 75s34 74 75 74c42 0 74 -33 74 -74s-32 -75 -74 -75zM62 67c0 37 30 66 70 66c49 0 86 -45 86 -116c0 -84 -35 -145 -71 -188c-7 -7 -14 -8 -20 -2l-24 19c-7 7 -5 13 1 20c27 34 51 78 51 121c0 12 -1 20 -5 26c-7 -7 -19 -10 -31 -10
c-37 0 -57 29 -57 64z" />
    <glyph glyph-name="less" unicode="&#x3c;" 
d="M106 210c-5 3 -10 11 -10 17v5c0 6 5 14 10 17l343 212c13 8 28 0 28 -16v-53c0 -8 -5 -15 -10 -18l-238 -144l238 -139c5 -3 10 -10 10 -17v-53c0 -16 -15 -24 -28 -16z" />
    <glyph glyph-name="equal" unicode="=" 
d="M144 344c-11 0 -19 9 -19 19v43c0 10 8 19 19 19h312c11 0 19 -9 19 -19v-43c0 -10 -8 -19 -19 -19h-312zM144 133c-11 0 -19 9 -19 19v44c0 10 8 19 19 19h312c11 0 19 -9 19 -19v-44c0 -10 -8 -19 -19 -19h-312z" />
    <glyph glyph-name="greater" unicode="&#x3e;" 
d="M123 21v53c0 7 4 14 10 17l237 139l-237 144c-6 3 -10 10 -10 18v53s15 24 28 16l343 -212c5 -3 10 -11 10 -17v-5c0 -6 -5 -14 -10 -17l-343 -205c-13 -8 -28 0 -28 16z" />
    <glyph glyph-name="question" unicode="?" horiz-adv-x="480" 
d="M196 272c-10 0 -19 8 -19 19v42c0 109 145 122 145 214c0 41 -32 77 -90 77c-71 0 -103 -43 -123 -60c-8 -7 -16 -7 -24 0l-33 32c-8 7 -6 18 0 26c0 0 63 88 190 88c104 0 184 -66 184 -161c0 -126 -155 -149 -155 -220v-37c0 -13 -9 -20 -21 -20h-54zM153 59
c0 39 31 70 69 70c39 0 70 -31 70 -70c0 -38 -31 -69 -70 -69c-38 0 -69 31 -69 69z" />
    <glyph glyph-name="at" unicode="@" horiz-adv-x="1001" 
d="M57 223c0 284 186 487 468 487c273 0 429 -181 429 -422c0 -132 -79 -268 -218 -268c-69 0 -103 36 -117 78h-8c-21 -42 -66 -78 -128 -78c-103 0 -178 89 -178 211c0 126 76 209 181 209c72 0 110 -48 118 -56c10 30 8 46 41 46h13c10 0 19 -9 19 -19v-198
c0 -94 28 -114 67 -114c71 0 123 78 123 186c0 194 -116 345 -345 345c-230 0 -379 -155 -379 -407c0 -177 105 -309 253 -371c13 -6 15 -12 10 -25l-18 -45c-4 -9 -11 -13 -21 -9c-179 70 -310 236 -310 450zM491 358c-66 0 -99 -65 -99 -129c0 -76 45 -123 99 -123
c64 0 93 42 93 112v77c-2 14 -32 63 -93 63z" />
    <glyph glyph-name="A" unicode="A" horiz-adv-x="667" 
d="M22 0c-15 0 -23 13 -17 26l307 673c3 6 12 11 17 11h10c5 0 14 -5 17 -11l305 -673c6 -13 -2 -26 -17 -26h-63c-12 0 -19 6 -23 15l-62 137h-327l-61 -137c-3 -7 -11 -15 -23 -15h-63zM208 238h250l-123 274h-5z" />
    <glyph glyph-name="B" unicode="B" horiz-adv-x="620" 
d="M445 357v-2c60 -23 118 -73 118 -162c0 -112 -92 -193 -218 -193h-235c-11 0 -19 9 -19 19v662c0 10 8 19 19 19h224c121 0 208 -80 208 -185c0 -75 -42 -131 -97 -158zM193 396h131c64 0 107 44 107 107c0 66 -43 103 -107 103h-131v-210zM192 92h156
c68 0 104 47 104 109c0 61 -46 105 -104 105h-156v-214z" />
    <glyph glyph-name="C" unicode="C" horiz-adv-x="698" 
d="M48 349c0 200 161 361 361 361c101 0 174 -34 242 -93c9 -8 9 -20 1 -28l-44 -45c-7 -9 -16 -9 -25 0c-47 41 -111 67 -173 67c-143 0 -251 -120 -251 -260s109 -259 252 -259c73 0 124 29 172 66c9 7 18 6 24 1l46 -45c8 -7 6 -20 -1 -27c-68 -66 -154 -97 -243 -97
c-200 0 -361 159 -361 359z" />
    <glyph glyph-name="D" unicode="D" horiz-adv-x="739" 
d="M91 19v662c0 10 8 19 18 19h230c193 0 351 -157 351 -349c0 -194 -158 -351 -351 -351h-230c-10 0 -18 9 -18 19zM193 95h135c147 0 251 108 251 256c0 147 -104 254 -251 254h-135v-510z" />
    <glyph glyph-name="E" unicode="E" horiz-adv-x="576" 
d="M91 19v662c0 10 8 19 19 19h400c11 0 19 -9 19 -19v-56c0 -10 -8 -19 -19 -19h-316v-204h267c10 0 19 -9 19 -19v-56c0 -11 -9 -19 -19 -19h-267v-215h316c11 0 19 -9 19 -19v-55c0 -10 -8 -19 -19 -19h-400c-11 0 -19 9 -19 19z" />
    <glyph glyph-name="F" unicode="F" horiz-adv-x="557" 
d="M91 19v662c0 10 8 19 19 19h400c11 0 19 -9 19 -19v-56c0 -10 -8 -19 -19 -19h-316v-231h267c10 0 19 -9 19 -19v-55c0 -10 -9 -19 -19 -19h-267v-263c0 -10 -9 -19 -19 -19h-65c-11 0 -19 9 -19 19z" />
    <glyph glyph-name="G" unicode="G" horiz-adv-x="726" 
d="M48 349c0 200 161 361 360 361c96 0 175 -35 243 -93c8 -8 9 -20 1 -28c-15 -16 -30 -31 -45 -47c-8 -9 -16 -8 -26 1c-47 41 -109 68 -170 68c-142 0 -251 -120 -251 -260c0 -139 109 -259 251 -259c83 0 140 30 150 34v112h-98c-11 0 -19 8 -19 18v58c0 11 8 19 19 19
h183c10 0 18 -9 18 -19v-242c0 -5 -4 -13 -8 -16c0 0 -103 -66 -248 -66c-199 0 -360 159 -360 359z" />
    <glyph glyph-name="H" unicode="H" horiz-adv-x="756" 
d="M91 19v662c0 10 9 19 19 19h66c11 0 19 -9 19 -19v-279h366v279c0 10 8 19 19 19h66c10 0 19 -9 19 -19v-662c0 -10 -9 -19 -19 -19h-66c-11 0 -19 9 -19 19v289h-366v-289c0 -10 -8 -19 -19 -19h-66c-10 0 -19 9 -19 19z" />
    <glyph glyph-name="I" unicode="I" horiz-adv-x="286" 
d="M91 19v662c0 10 9 19 19 19h66c10 0 19 -9 19 -19v-662c0 -10 -9 -19 -19 -19h-66c-10 0 -19 9 -19 19z" />
    <glyph glyph-name="J" unicode="J" horiz-adv-x="462" 
d="M19 63c-5 8 -4 18 2 25l36 39c14 12 23 8 32 -2c15 -17 43 -43 82 -43c49 0 101 28 101 116v483c0 10 8 19 19 19h66c11 0 19 -9 19 -19v-482c0 -139 -88 -209 -205 -209c-87 0 -135 52 -152 73z" />
    <glyph glyph-name="K" unicode="K" horiz-adv-x="621" 
d="M91 24v652c0 13 10 24 24 24h58c13 0 24 -11 24 -24v-277l282 291c4 5 11 10 19 10h75c18 0 28 -21 14 -36l-289 -294l306 -337c8 -10 3 -33 -18 -33h-80c-10 0 -16 4 -18 7l-291 328v-311c0 -13 -11 -24 -24 -24h-58c-14 0 -24 11 -24 24z" />
    <glyph glyph-name="L" unicode="L" horiz-adv-x="501" 
d="M91 19v662c0 10 8 19 19 19h66c10 0 19 -9 19 -19v-588h271c11 0 19 -9 19 -19v-55c0 -10 -8 -19 -19 -19h-356c-11 0 -19 9 -19 19z" />
    <glyph glyph-name="M" unicode="M" horiz-adv-x="869" 
d="M49 23l124 672c2 8 10 15 18 15h16c6 0 15 -5 17 -11l209 -511h4l208 511c2 6 10 11 17 11h16c8 0 16 -7 18 -15l123 -672c3 -14 -4 -23 -18 -23h-65c-9 0 -17 7 -19 14l-74 447h-3l-180 -460c-2 -6 -8 -11 -17 -11h-18c-8 0 -15 5 -17 11l-181 460h-4l-72 -447
c-1 -7 -10 -14 -18 -14h-65c-14 0 -21 9 -19 23z" />
    <glyph glyph-name="N" unicode="N" horiz-adv-x="763" 
d="M91 19v673c0 10 9 18 19 18h8c10 0 17 0 30 -15l420 -487h2v473c0 10 8 19 19 19h64c10 0 19 -9 19 -19v-673c0 -10 -9 -18 -19 -18h-9c-10 0 -17 0 -29 14l-421 502h-2v-487c0 -10 -8 -19 -19 -19h-63c-10 0 -19 9 -19 19z" />
    <glyph glyph-name="O" unicode="O" horiz-adv-x="815" 
d="M48 349c0 200 159 361 359 361s360 -161 360 -361s-160 -359 -360 -359s-359 159 -359 359zM148 349c0 -143 117 -262 259 -262c143 0 260 119 260 262c0 142 -117 264 -260 264c-142 0 -259 -122 -259 -264z" />
    <glyph glyph-name="P" unicode="P" horiz-adv-x="591" 
d="M91 19v662c0 10 8 19 19 19h228c123 0 224 -100 224 -221c0 -124 -101 -225 -223 -225h-145v-235c0 -10 -9 -19 -19 -19h-65c-11 0 -19 9 -19 19zM194 352h142c69 0 123 56 123 128c0 68 -54 120 -123 120h-142v-248z" />
    <glyph glyph-name="Q" unicode="Q" horiz-adv-x="815" 
d="M48 349c0 200 159 361 359 361s360 -161 360 -361c0 -142 -83 -265 -204 -325l121 -192c9 -14 0 -30 -16 -30h-78c-4 0 -12 3 -16 10l-108 182c-19 -3 -41 -4 -59 -4c-200 0 -359 159 -359 359zM148 349c0 -143 117 -261 259 -261c143 0 260 118 260 261
c0 142 -117 264 -260 264c-142 0 -259 -122 -259 -264z" />
    <glyph glyph-name="R" unicode="R" horiz-adv-x="655" 
d="M91 19v662c0 10 8 19 19 19h272c120 0 218 -95 218 -214c0 -92 -61 -168 -148 -203l137 -254c7 -13 0 -29 -17 -29h-75c-11 0 -17 5 -21 13l-131 261h-151v-255c0 -10 -9 -19 -19 -19h-65c-11 0 -19 9 -19 19zM196 360h178c65 0 122 55 122 124c0 65 -57 119 -122 119
h-178v-243z" />
    <glyph glyph-name="S" unicode="S" horiz-adv-x="539" 
d="M59 69c-9 8 -17 15 -6 32l26 41c8 13 23 17 34 8c47 -39 83 -69 160 -69c69 0 113 42 113 93c0 60 -52 98 -151 139c-102 43 -182 96 -182 212c0 78 60 185 219 185c100 0 175 -52 185 -59c8 -5 16 -19 6 -34l-25 -38c-8 -13 -21 -19 -35 -10c-39 25 -77 50 -135 50
c-84 0 -113 -53 -113 -90c0 -57 44 -92 127 -126c116 -47 215 -102 215 -224c0 -104 -93 -189 -223 -189c-122 0 -199 64 -215 79z" />
    <glyph glyph-name="T" unicode="T" horiz-adv-x="520" 
d="M208 19v587h-163c-11 0 -19 9 -19 19v56c0 10 8 19 19 19h430c11 0 19 -9 19 -19v-56c0 -10 -8 -19 -19 -19h-163v-587c0 -10 -9 -19 -19 -19h-66c-10 0 -19 9 -19 19z" />
    <glyph glyph-name="U" unicode="U" horiz-adv-x="712" 
d="M84 253v428c0 10 9 19 19 19h67c11 0 19 -9 19 -19v-421c0 -100 64 -170 166 -170c103 0 168 69 168 168v423c0 10 8 19 19 19h67c10 0 19 -9 19 -19v-428c0 -152 -115 -263 -273 -263c-157 0 -271 111 -271 263z" />
    <glyph glyph-name="V" unicode="V" horiz-adv-x="665" 
d="M310 1l-305 673c-6 13 2 26 17 26h71c8 0 15 -6 17 -11l220 -495h5l221 495c2 5 8 11 17 11h71c15 0 23 -13 17 -26l-307 -673c-3 -6 -9 -11 -17 -11h-10c-7 0 -14 5 -17 11z" />
    <glyph glyph-name="W" unicode="W" horiz-adv-x="886" 
d="M215 4l-189 672c-4 14 4 24 18 24h67c8 0 16 -7 18 -14l121 -459h4l163 472c2 6 9 11 17 11h18c8 0 15 -5 17 -11l165 -472h4l119 459c2 7 10 14 18 14h67c14 0 22 -10 18 -24l-189 -672c-2 -8 -10 -14 -18 -14h-16c-7 0 -15 5 -17 11l-176 497h-5l-173 -497
c-2 -6 -10 -11 -17 -11h-16c-8 0 -16 6 -18 14z" />
    <glyph glyph-name="X" unicode="X" horiz-adv-x="596" 
d="M29 28l206 331l-198 313c-8 13 0 28 17 28h85c7 0 14 -4 17 -9l139 -239h3l143 239c2 4 8 9 16 9h85c17 0 25 -15 17 -28l-198 -313l205 -331c8 -14 0 -28 -17 -28h-77c-8 0 -15 5 -17 9l-156 256h-4l-154 -256c-3 -4 -9 -9 -17 -9h-77c-18 0 -26 15 -18 28z" />
    <glyph glyph-name="Y" unicode="Y" horiz-adv-x="583" 
d="M291 438h2l180 253c3 4 9 9 16 9h75c16 0 24 -16 16 -29l-237 -333v-319c0 -10 -9 -19 -19 -19h-66c-11 0 -19 9 -19 19v318l-234 334c-8 13 0 29 16 29h74c8 0 13 -5 16 -9z" />
    <glyph glyph-name="Z" unicode="Z" horiz-adv-x="533" 
d="M45 0c-10 0 -19 9 -19 19c0 13 0 18 8 32l322 549v4h-282c-10 0 -19 9 -19 19v58c0 10 9 19 19 19h411c10 0 19 -9 19 -19s0 -13 -7 -26l-324 -559v-1h292c11 0 19 -9 19 -19v-57c0 -10 -8 -19 -19 -19h-420z" />
    <glyph glyph-name="bracketleft" unicode="[" horiz-adv-x="340" 
d="M163 -157h134c10 0 19 -8 19 -18v-44c0 -10 -9 -19 -19 -19h-206c-10 0 -19 9 -19 19v900c0 10 9 19 19 19h206c10 0 19 -9 19 -19v-44c0 -11 -9 -19 -19 -19h-134v-775z" />
    <glyph glyph-name="backslash" unicode="\" horiz-adv-x="401" 
d="M253 13l-195 662c-4 14 4 25 18 25h54c8 0 16 -6 18 -13l196 -662c4 -14 -5 -25 -18 -25h-55c-7 0 -16 6 -18 13z" />
    <glyph glyph-name="bracketright" unicode="]" horiz-adv-x="341" 
d="M44 -157h133v775h-133c-10 0 -19 8 -19 19v44c0 10 9 19 19 19h206c10 0 19 -9 19 -19v-900c0 -10 -9 -19 -19 -19h-206c-10 0 -19 9 -19 19v44c0 10 9 18 19 18z" />
    <glyph glyph-name="asciicircum" unicode="^" horiz-adv-x="524" 
d="M56 391c-16 0 -24 15 -16 28l205 285c3 5 11 10 17 10h5c6 0 14 -5 17 -10l199 -285c8 -13 0 -28 -16 -28h-51c-9 0 -14 6 -17 10l-136 190l-138 -190c-3 -5 -11 -10 -18 -10h-51z" />
    <glyph glyph-name="underscore" unicode="_" horiz-adv-x="539" 
d="M91 -29c0 11 8 19 19 19h319c11 0 19 -8 19 -19v-28c0 -10 -8 -18 -19 -18h-319c-11 0 -19 8 -19 18v28z" />
    <glyph glyph-name="grave" unicode="`" horiz-adv-x="302" 
d="M235 543l-168 72c-8 4 -11 14 -6 24l23 44c5 9 20 7 26 3l157 -91c6 -3 10 -11 6 -19l-14 -29c-4 -8 -10 -11 -24 -4z" />
    <glyph glyph-name="a" unicode="a" horiz-adv-x="477" 
d="M35 143c0 85 66 149 185 149c48 0 93 -14 93 -14c2 73 -16 106 -74 106c-53 0 -105 -15 -129 -22c-14 -3 -23 6 -26 19l-9 38c-3 16 4 23 15 27c8 3 74 26 159 26c148 0 162 -89 162 -204v-246c0 -12 -11 -22 -22 -22h-33c-9 0 -14 4 -19 16l-11 31
c-25 -24 -71 -58 -142 -58c-87 0 -149 58 -149 154zM133 144c0 -41 24 -73 72 -73c46 0 93 33 107 56v77c-6 4 -42 16 -84 16c-54 0 -95 -28 -95 -76z" />
    <glyph glyph-name="b" unicode="b" horiz-adv-x="556" 
d="M70 22v656c0 11 10 22 22 22h57c11 0 22 -11 22 -22v-230c10 3 57 24 116 24c128 0 227 -106 227 -241c0 -132 -94 -242 -215 -242c-92 0 -152 65 -152 65l-10 -34c-3 -12 -10 -20 -21 -20h-24c-12 0 -22 10 -22 22zM170 151c6 -13 44 -67 114 -67c75 0 130 69 130 147
c0 79 -62 146 -138 146c-60 0 -106 -25 -106 -25v-201z" />
    <glyph glyph-name="c" unicode="c" horiz-adv-x="492" 
d="M41 230c0 136 109 242 237 242c72 0 125 -27 168 -80c9 -11 6 -24 -4 -33l-36 -33c-13 -12 -22 -3 -30 5c-21 23 -58 46 -95 46c-79 0 -140 -64 -140 -146c0 -83 60 -147 137 -147c60 0 84 34 109 57c10 10 21 10 31 2l31 -25c11 -10 16 -21 8 -33
c-38 -57 -100 -96 -180 -96c-129 0 -236 102 -236 241z" />
    <glyph glyph-name="d" unicode="d" horiz-adv-x="552" 
d="M42 231c0 135 95 241 223 241c59 0 106 -21 116 -24v230c0 11 11 22 22 22h57c12 0 22 -11 22 -22v-656c0 -12 -10 -22 -22 -22h-24c-11 0 -18 8 -21 20l-10 34s-60 -65 -152 -65c-122 0 -211 110 -211 242zM142 231c0 -78 51 -147 125 -147c71 0 110 55 115 68v198
s-46 27 -106 27c-76 0 -134 -67 -134 -146z" />
    <glyph glyph-name="e" unicode="e" horiz-adv-x="518" 
d="M42 231c0 130 91 241 230 241c120 0 211 -89 211 -212c0 -8 -1 -24 -2 -32c-1 -12 -11 -20 -21 -20h-319c1 -62 57 -126 138 -126c53 0 85 19 113 39c10 7 19 10 27 -2l27 -42c8 -10 12 -19 -2 -31c-33 -29 -94 -57 -171 -57c-140 0 -231 110 -231 242zM146 282h238
c-2 56 -46 105 -114 105c-73 0 -117 -47 -124 -105z" />
    <glyph glyph-name="f" unicode="f" horiz-adv-x="382" 
d="M109 22v347h-60c-13 0 -22 11 -22 22v49c0 13 9 22 22 22h60v53c0 124 59 195 171 195c62 0 110 -27 131 -46c8 -7 9 -19 4 -26l-29 -42c-7 -11 -18 -12 -30 -4c-25 16 -44 23 -74 23c-52 0 -73 -42 -73 -100v-53h131c12 0 22 -9 22 -22v-49c0 -11 -10 -22 -22 -22h-131
v-347c0 -12 -11 -22 -22 -22h-56c-11 0 -22 10 -22 22z" />
    <glyph glyph-name="g" unicode="g" horiz-adv-x="554" 
d="M142 231c0 -79 60 -147 135 -147c61 0 107 37 107 37v191c-9 17 -49 65 -111 65c-79 0 -131 -68 -131 -146zM484 440v-443c0 -144 -93 -216 -214 -216c-77 0 -140 38 -160 58c-8 5 -9 19 -5 26l24 44c6 12 19 16 31 7c16 -13 55 -43 108 -43c61 0 115 30 115 124v25
c-8 -5 -58 -33 -118 -33c-126 0 -223 107 -223 242c0 132 91 241 218 241c86 0 138 -47 146 -55l12 29c3 9 6 16 17 16h27c12 0 22 -11 22 -22z" />
    <glyph glyph-name="h" unicode="h" horiz-adv-x="548" 
d="M70 22v656c0 11 10 22 22 22h56c11 0 22 -11 22 -22v-254c11 8 61 48 134 48c131 0 179 -92 179 -218v-232c0 -12 -11 -22 -22 -22h-56c-12 0 -22 10 -22 22v234c0 76 -32 121 -92 121c-71 0 -111 -47 -121 -67v-288c0 -13 -9 -22 -23 -22h-55c-12 0 -22 10 -22 22z" />
    <glyph glyph-name="i" unicode="i" horiz-adv-x="240" 
d="M70 22v418c0 11 10 22 22 22h56c11 0 22 -11 22 -22v-418c0 -12 -11 -22 -22 -22h-56c-12 0 -22 10 -22 22zM120 561c-37 0 -66 30 -66 67c0 38 29 68 66 68c38 0 68 -30 68 -68c0 -37 -30 -67 -68 -67z" />
    <glyph glyph-name="j" unicode="j" horiz-adv-x="240" 
d="M170 440v-482c0 -114 -53 -180 -116 -204c-14 -5 -28 -1 -35 12l-21 39c-8 14 -2 30 12 37c30 15 60 42 60 104v494c0 13 10 22 22 22h56c11 0 22 -9 22 -22zM120 561c-37 0 -66 30 -66 67c0 38 29 68 66 68c38 0 68 -30 68 -68c0 -37 -30 -67 -68 -67z" />
    <glyph glyph-name="k" unicode="k" horiz-adv-x="497" 
d="M70 22v656c0 11 10 22 22 22h56c11 0 22 -11 22 -22v-391l178 161c8 7 17 14 29 14h73c20 0 23 -22 12 -32l-187 -176l196 -224c9 -11 7 -30 -13 -30h-82c-9 0 -17 4 -21 9l-185 215v-202c0 -12 -11 -22 -22 -22h-56c-12 0 -22 10 -22 22z" />
    <glyph glyph-name="l" unicode="l" horiz-adv-x="246" 
d="M73 22v656c0 11 10 22 22 22h56c11 0 22 -11 22 -22v-656c0 -12 -11 -22 -22 -22h-56c-12 0 -22 10 -22 22z" />
    <glyph glyph-name="m" unicode="m" horiz-adv-x="833" 
d="M70 22v418c0 11 10 22 22 22h23c11 0 17 -5 20 -14l13 -40c10 11 59 64 147 64c67 0 107 -26 141 -73c13 13 68 73 156 73c141 0 176 -98 176 -218v-232c0 -12 -9 -22 -22 -22h-56c-14 0 -22 10 -22 22v236c0 74 -28 119 -91 119c-70 0 -103 -47 -111 -54
c2 -10 4 -38 4 -62v-239c0 -12 -10 -22 -21 -22h-57c-13 0 -22 10 -22 22v236c0 75 -27 119 -91 119c-69 0 -104 -51 -109 -67v-288c0 -12 -11 -22 -22 -22h-56c-12 0 -22 10 -22 22z" />
    <glyph glyph-name="n" unicode="n" horiz-adv-x="548" 
d="M70 22v418c0 11 10 22 22 22h24c10 0 17 -5 19 -14l14 -40c10 12 63 64 155 64c141 0 179 -98 179 -218v-232c0 -12 -11 -22 -22 -22h-56c-12 0 -22 10 -22 22v236c0 75 -31 119 -91 119c-73 0 -115 -51 -122 -67v-288c0 -15 -8 -22 -27 -22h-51c-12 0 -22 10 -22 22z
" />
    <glyph glyph-name="o" unicode="o" horiz-adv-x="553" 
d="M41 232c0 130 106 240 236 240c129 0 235 -110 235 -240c0 -132 -106 -243 -235 -243c-130 0 -236 111 -236 243zM139 232c0 -85 60 -148 138 -148c77 0 137 63 137 148c0 83 -60 145 -137 145c-78 0 -138 -62 -138 -145z" />
    <glyph glyph-name="p" unicode="p" horiz-adv-x="554" 
d="M172 21v-237c0 -13 -9 -22 -24 -22h-56c-12 0 -22 10 -22 22v656c0 11 10 22 22 22h25c10 0 16 -4 20 -15l12 -30c8 8 60 55 145 55c127 0 218 -109 218 -241c0 -135 -96 -242 -222 -242c-60 0 -110 27 -118 32zM170 118c0 0 45 -34 107 -34c75 0 135 64 135 147
c0 82 -52 146 -131 146c-67 0 -107 -51 -111 -65v-194z" />
    <glyph glyph-name="g.alt" horiz-adv-x="535" 
d="M31 73c0 89 80 121 80 121s-34 35 -34 94c0 109 80 184 199 184h202c12 0 22 -9 22 -22v-28c0 -8 -5 -19 -13 -20l-66 -18s52 -29 52 -104c0 -99 -76 -172 -196 -172c-59 0 -91 19 -101 19c-8 0 -47 -9 -47 -46c0 -26 21 -39 56 -39h156c101 0 179 -30 179 -129
c0 -102 -90 -162 -243 -162c-163 0 -229 52 -229 128c0 60 57 82 68 86v3c-24 7 -85 28 -85 105zM278 196c59 0 99 31 99 90c0 64 -40 91 -99 91c-60 0 -104 -27 -104 -91c0 -60 44 -90 104 -90zM145 -99c0 -48 59 -60 131 -60c71 0 144 7 144 63c0 25 -24 47 -79 47h-127
c-41 0 -69 -19 -69 -50z" />
    <glyph glyph-name="r" unicode="r" horiz-adv-x="386" 
d="M70 22v418c0 11 10 22 22 22h24c9 0 18 -7 20 -16l13 -42c8 12 56 68 140 68c44 0 99 -12 84 -43l-24 -50c-6 -13 -18 -16 -28 -11c-7 4 -28 9 -42 9c-68 0 -105 -54 -109 -62v-293c0 -20 -13 -22 -32 -22h-46c-12 0 -22 10 -22 22z" />
    <glyph glyph-name="s" unicode="s" horiz-adv-x="404" 
d="M203 -11c-73 0 -126 29 -152 47c-7 5 -13 14 -8 24l21 43c5 10 18 13 30 6c27 -15 60 -34 115 -34c39 0 61 19 61 45c0 31 -35 51 -99 80c-71 32 -125 70 -125 146c0 58 41 126 153 126c64 0 112 -19 135 -34c11 -8 16 -22 10 -34l-16 -32c-7 -14 -21 -13 -30 -9
c-32 14 -63 23 -99 23c-40 0 -59 -20 -59 -41c0 -30 33 -48 79 -68c85 -36 149 -67 149 -153c0 -72 -62 -135 -165 -135z" />
    <glyph glyph-name="t" unicode="t" horiz-adv-x="380" 
d="M101 127v250h-53c-13 0 -22 11 -22 22v41c0 13 9 22 22 22h53v129c0 12 10 22 22 22h57c12 0 21 -10 21 -22v-129h122c12 0 22 -9 22 -22v-41c0 -11 -10 -22 -22 -22h-122v-246c0 -39 15 -47 37 -47c29 0 57 12 74 22c14 8 23 0 27 -10l18 -47c5 -12 0 -20 -11 -27
c-19 -12 -73 -33 -128 -33c-92 0 -117 56 -117 138z" />
    <glyph glyph-name="u" unicode="u" horiz-adv-x="533" 
d="M65 201v239c0 11 11 22 22 22h56c12 0 22 -11 22 -22v-246c0 -76 31 -110 90 -110c67 0 104 55 108 76v280c0 19 9 22 26 22h51c12 0 23 -11 23 -22v-418c0 -12 -11 -22 -23 -22h-24c-12 0 -17 8 -21 19l-12 33c-10 -10 -52 -63 -146 -63c-138 0 -172 91 -172 212z" />
    <glyph glyph-name="v" unicode="v" horiz-adv-x="485" 
d="M220 1l-200 435c-8 14 0 26 17 26h61c11 0 16 -5 20 -13l123 -283h2l129 283c6 13 18 13 31 13h45c17 0 25 -12 17 -26l-200 -435c-3 -6 -9 -12 -19 -12h-6c-10 0 -17 6 -20 12z" />
    <glyph glyph-name="w" unicode="w" horiz-adv-x="705" 
d="M167 1l-135 435c-7 14 0 26 16 26h60c8 0 18 -5 20 -14l76 -265h2l125 278c3 6 10 11 19 11h7c11 0 18 -5 20 -11l124 -279h2l74 266c6 14 23 14 35 14h42c16 0 25 -12 18 -26l-132 -435c-2 -7 -11 -12 -21 -12h-4c-10 0 -17 5 -20 11l-141 314h-2l-142 -314
c-2 -6 -8 -11 -18 -11h-6c-10 0 -17 5 -19 12z" />
    <glyph glyph-name="x" unicode="x" horiz-adv-x="490" 
d="M34 30l147 205l-143 195c-12 16 -3 32 14 32h69c11 0 21 -3 27 -13l96 -143h2l97 143c6 9 15 13 27 13h70c19 0 25 -15 14 -30l-143 -195l144 -207c10 -15 4 -30 -14 -30h-67c-9 0 -18 5 -24 14l-104 153h-2l-107 -158c-3 -5 -9 -9 -18 -9h-72c-20 0 -24 15 -13 30z" />
    <glyph glyph-name="y" unicode="y" horiz-adv-x="497" 
d="M182 16l-159 416c-6 16 2 30 20 30h66c7 0 17 -5 20 -13l107 -317h2l130 317c4 11 13 13 24 13h62c19 0 27 -14 20 -30l-282 -656c-4 -7 -10 -14 -19 -14h-64c-17 0 -28 15 -20 31z" />
    <glyph glyph-name="z" unicode="z" horiz-adv-x="414" 
d="M56 0c-12 0 -22 10 -22 22c0 9 0 12 8 26l195 319v2h-171c-11 0 -21 11 -21 22v49c0 13 10 22 21 22h298c13 0 23 -9 23 -20c0 -4 -1 -8 -3 -12l-202 -336v-3h159c13 0 22 -9 22 -22v-47c0 -12 -9 -22 -22 -22h-285z" />
    <glyph glyph-name="braceleft" unicode="{" horiz-adv-x="398" 
d="M109 -14v132c0 45 -45 69 -69 73c-8 1 -15 10 -15 18v40c0 8 7 14 14 16c16 2 70 29 70 73v134c0 201 143 235 246 237c11 1 20 -5 20 -17l2 -41c1 -8 -6 -17 -13 -18c-87 -15 -159 -56 -159 -161v-109c0 -93 -62 -125 -81 -133v-3c28 -12 81 -40 81 -131v-110
c0 -105 72 -143 159 -158c7 -1 14 -8 13 -18l-2 -41c0 -10 -10 -18 -20 -17c-103 2 -246 33 -246 234z" />
    <glyph glyph-name="bar" unicode="|" horiz-adv-x="189" 
d="M71 -220v961c0 11 9 19 19 19h10c10 0 18 -8 18 -19v-961c0 -10 -9 -18 -19 -18h-9c-10 0 -19 8 -19 18z" />
    <glyph glyph-name="braceright" unicode="}" horiz-adv-x="398" 
d="M193 -12v110c0 91 53 119 81 131v3c-19 8 -81 40 -81 133v109c0 105 -72 144 -159 159c-7 1 -14 10 -13 18l2 41c0 12 9 18 20 17c103 -2 246 -34 246 -235v-134c0 -44 54 -71 70 -73c7 -2 14 -8 14 -16v-40c0 -8 -7 -17 -15 -18c-24 -4 -69 -28 -69 -73v-132
c0 -201 -143 -234 -246 -236c-10 -1 -20 7 -20 17l-2 41c-1 10 6 17 13 18c87 15 159 55 159 160z" />
    <glyph glyph-name="asciitilde" unicode="~" horiz-adv-x="551" 
d="M82 212c-12 11 -22 18 -34 29c-6 7 -8 17 -2 24c0 0 63 96 142 96c44 0 76 -24 104 -43c17 -12 46 -33 73 -33c40 0 66 38 79 57c8 10 19 11 28 3l32 -29c7 -6 8 -17 2 -24c0 0 -62 -95 -141 -95c-46 0 -78 24 -107 43c-19 13 -42 32 -70 32c-40 0 -66 -37 -79 -57
c-7 -10 -19 -11 -27 -3z" />
    <glyph glyph-name="uni00A0" unicode="&#xa0;" horiz-adv-x="240" 
 />
    <glyph glyph-name="Agrave" unicode="&#xc0;" horiz-adv-x="667" 
d="M22 0c-15 0 -23 13 -17 26l307 673c3 6 12 11 17 11h10c5 0 14 -5 17 -11l305 -673c6 -13 -2 -26 -17 -26h-63c-12 0 -19 6 -23 15l-62 137h-327l-61 -137c-3 -7 -11 -15 -23 -15h-63zM208 238h250l-123 274h-5zM402 774l-168 72c-8 4 -11 14 -6 24l23 44c5 9 20 7 26 3
l157 -91c6 -3 10 -11 6 -19l-14 -28c-4 -9 -10 -11 -24 -5z" />
    <glyph glyph-name="Aacute" unicode="&#xc1;" horiz-adv-x="667" 
d="M22 0c-15 0 -23 13 -17 26l307 673c3 6 12 11 17 11h10c5 0 14 -5 17 -11l305 -673c6 -13 -2 -26 -17 -26h-63c-12 0 -19 6 -23 15l-62 137h-327l-61 -137c-3 -7 -11 -15 -23 -15h-63zM208 238h250l-123 274h-5zM264 774c-13 -6 -20 -4 -24 5l-14 28c-4 8 1 16 6 19
l157 91c6 4 21 6 26 -3l23 -44c6 -10 2 -20 -6 -24z" />
    <glyph glyph-name="Acircumflex" unicode="&#xc2;" horiz-adv-x="667" 
d="M22 0c-15 0 -23 13 -17 26l307 673c3 6 12 11 17 11h10c5 0 14 -5 17 -11l305 -673c6 -13 -2 -26 -17 -26h-63c-12 0 -19 6 -23 15l-62 137h-327l-61 -137c-3 -7 -11 -15 -23 -15h-63zM208 238h250l-123 274h-5zM237 768c-12 -7 -17 -5 -23 3l-20 27c-5 7 0 15 6 19
l125 98c6 5 17 5 24 0l125 -98c6 -4 11 -12 6 -19l-20 -27c-6 -8 -11 -11 -23 -3l-100 65z" />
    <glyph glyph-name="Atilde" unicode="&#xc3;" horiz-adv-x="667" 
d="M22 0c-15 0 -23 13 -17 26l307 673c3 6 12 11 17 11h10c5 0 14 -5 17 -11l305 -673c6 -13 -2 -26 -17 -26h-63c-12 0 -19 6 -23 15l-62 137h-327l-61 -137c-3 -7 -11 -15 -23 -15h-63zM208 238h250l-123 274h-5zM213 792l-23 15c-10 6 -9 16 -6 23c9 18 39 84 98 84
c58 0 77 -64 109 -64c23 0 31 25 41 40c6 10 13 16 25 9c8 -6 20 -11 26 -19c5 -8 2 -16 -3 -27c-10 -22 -39 -75 -94 -75c-51 0 -78 65 -107 65c-24 0 -37 -28 -43 -41c-5 -11 -10 -17 -23 -10z" />
    <glyph glyph-name="Adieresis" unicode="&#xc4;" horiz-adv-x="667" 
d="M22 0c-15 0 -23 13 -17 26l307 673c3 6 12 11 17 11h10c5 0 14 -5 17 -11l305 -673c6 -13 -2 -26 -17 -26h-63c-12 0 -19 6 -23 15l-62 137h-327l-61 -137c-3 -7 -11 -15 -23 -15h-63zM208 238h250l-123 274h-5zM446 776c-35 0 -62 28 -62 63s27 62 62 62s63 -27 63 -62
s-28 -63 -63 -63zM217 776c-35 0 -62 28 -62 63s27 62 62 62s63 -27 63 -62s-28 -63 -63 -63z" />
    <glyph glyph-name="Amacron" unicode="&#x100;" horiz-adv-x="667" 
d="M22 0c-15 0 -23 13 -17 26l307 673c3 6 12 11 17 11h10c5 0 14 -5 17 -11l305 -673c6 -13 -2 -26 -17 -26h-63c-12 0 -19 6 -23 15l-62 137h-327l-61 -137c-3 -7 -11 -15 -23 -15h-63zM208 238h250l-123 274h-5zM204 814c-11 0 -19 8 -19 18v28c0 11 8 19 19 19h256
c11 0 19 -8 19 -19v-28c0 -10 -8 -18 -19 -18h-256z" />
    <glyph glyph-name="Abreve" unicode="&#x102;" horiz-adv-x="667" 
d="M22 0c-15 0 -23 13 -17 26l307 673c3 6 12 11 17 11h10c5 0 14 -5 17 -11l305 -673c6 -13 -2 -26 -17 -26h-63c-12 0 -19 6 -23 15l-62 137h-327l-61 -137c-3 -7 -11 -15 -23 -15h-63zM208 238h250l-123 274h-5zM333 768c-72 0 -128 50 -138 116c-2 11 4 21 16 21h29
c10 0 16 -8 18 -16c11 -34 38 -58 75 -58c33 0 62 27 72 58c3 10 10 16 18 16h31c12 0 18 -10 16 -21c-11 -66 -67 -116 -137 -116z" />
    <glyph glyph-name="Aring" unicode="&#xc5;" horiz-adv-x="667" 
d="M22 0c-15 0 -23 13 -17 26l307 673c3 6 12 11 17 11h10c5 0 14 -5 17 -11l305 -673c6 -13 -2 -26 -17 -26h-63c-12 0 -19 6 -23 15l-62 137h-327l-61 -137c-3 -7 -11 -15 -23 -15h-63zM208 238h250l-123 274h-5zM332 756c-62 0 -111 49 -111 111s49 111 111 111
c61 0 111 -49 111 -111s-50 -111 -111 -111zM332 811c29 0 53 27 53 56s-24 53 -53 53c-31 0 -56 -24 -56 -53s24 -56 56 -56z" />
    <glyph glyph-name="Aringacute" unicode="&#x1fa;" horiz-adv-x="668" 
d="M243 893l-14 28c-4 8 1 16 6 19l157 91c6 4 21 6 26 -3l23 -44c6 -10 2 -20 -6 -24l-168 -72c-13 -6 -20 -4 -24 5zM22 0c-15 0 -23 13 -17 26l292 640c-43 16 -73 56 -73 105c0 62 49 111 111 111c61 0 111 -49 111 -111c0 -49 -32 -90 -75 -105l290 -640
c6 -13 -2 -26 -17 -26h-63c-12 0 -19 6 -23 15l-62 137h-327l-61 -137c-3 -7 -11 -15 -23 -15h-63zM335 715c29 0 53 27 53 56s-24 53 -53 53c-31 0 -56 -24 -56 -53s24 -56 56 -56zM208 238h250l-123 274h-5z" />
    <glyph glyph-name="Aogonek" unicode="&#x104;" horiz-adv-x="667" 
d="M22 0c-15 0 -23 13 -17 26l307 673c3 6 12 11 17 11h10c5 0 14 -5 17 -11l305 -673c6 -13 -2 -26 -17 -26h-4c-35 -22 -97 -71 -97 -125c0 -31 16 -46 43 -46c28 0 54 20 62 27c8 8 18 4 18 -6l1 -44c0 -11 -2 -21 -14 -29c-15 -9 -49 -23 -87 -23
c-68 0 -103 45 -103 103c0 75 64 122 102 148l-69 147h-327l-61 -137c-3 -7 -11 -15 -23 -15h-63zM208 238h250l-123 274h-5z" />
    <glyph glyph-name="AE" unicode="&#xc6;" horiz-adv-x="893" 
d="M6 0c-15 0 -20 13 -12 26l401 643c13 20 18 31 44 31h388c11 0 19 -9 19 -19v-56c0 -10 -8 -19 -19 -19h-320v-204h271c10 0 19 -9 19 -19v-56c0 -11 -9 -19 -19 -19h-271v-215h320c11 0 19 -9 19 -19v-55c0 -10 -8 -19 -19 -19h-401c-11 0 -19 9 -19 19v133h-222
l-87 -139c-5 -7 -12 -13 -22 -13h-70zM237 238h170v274z" />
    <glyph glyph-name="AEacute" unicode="&#x1fc;" horiz-adv-x="893" 
d="M6 0c-15 0 -20 13 -12 26l401 643c13 20 18 31 44 31h388c11 0 19 -9 19 -19v-56c0 -10 -8 -19 -19 -19h-320v-204h271c10 0 19 -9 19 -19v-56c0 -11 -9 -19 -19 -19h-271v-215h320c11 0 19 -9 19 -19v-55c0 -10 -8 -19 -19 -19h-401c-11 0 -19 9 -19 19v133h-222
l-87 -139c-5 -7 -12 -13 -22 -13h-70zM237 238h170v274zM547 775c-13 -6 -20 -4 -24 5l-14 28c-4 8 1 16 6 19l157 91c6 4 21 6 26 -3l23 -44c6 -10 2 -20 -6 -24z" />
    <glyph glyph-name="Cacute" unicode="&#x106;" horiz-adv-x="698" 
d="M48 349c0 200 161 361 361 361c101 0 174 -34 242 -93c9 -8 9 -20 1 -28l-44 -45c-7 -9 -16 -9 -25 0c-47 41 -111 67 -173 67c-143 0 -251 -120 -251 -260s109 -259 252 -259c73 0 124 29 172 66c9 7 18 6 24 1l46 -45c8 -7 6 -20 -1 -27c-68 -66 -154 -97 -243 -97
c-200 0 -361 159 -361 359zM338 774c-13 -6 -20 -4 -24 5l-14 28c-4 8 1 16 6 19l157 91c6 4 21 6 26 -3l23 -44c6 -10 2 -20 -6 -24z" />
    <glyph glyph-name="Ccircumflex" unicode="&#x108;" horiz-adv-x="698" 
d="M48 349c0 200 161 361 361 361c101 0 174 -34 242 -93c9 -8 9 -20 1 -28l-44 -45c-7 -9 -16 -9 -25 0c-47 41 -111 67 -173 67c-143 0 -251 -120 -251 -260s109 -259 252 -259c73 0 124 29 172 66c9 7 18 6 24 1l46 -45c8 -7 6 -20 -1 -27c-68 -66 -154 -97 -243 -97
c-200 0 -361 159 -361 359zM308 769c-12 -7 -17 -5 -23 3l-20 27c-5 7 0 15 6 19l125 98c6 5 17 5 24 0l125 -98c6 -4 11 -12 6 -19l-20 -27c-6 -8 -11 -11 -23 -3l-100 65z" />
    <glyph glyph-name="Ccaron" unicode="&#x10c;" horiz-adv-x="698" 
d="M48 349c0 200 161 361 361 361c101 0 174 -34 242 -93c9 -8 9 -20 1 -28l-44 -45c-7 -9 -16 -9 -25 0c-47 41 -111 67 -173 67c-143 0 -251 -120 -251 -260s109 -259 252 -259c73 0 124 29 172 66c9 7 18 6 24 1l46 -45c8 -7 6 -20 -1 -27c-68 -66 -154 -97 -243 -97
c-200 0 -361 159 -361 359zM396 768l-125 98c-6 4 -11 12 -6 19l20 27c6 8 11 10 23 3l100 -65l100 65c12 8 17 5 23 -3l20 -27c5 -7 0 -15 -6 -19l-125 -98c-7 -5 -18 -5 -24 0z" />
    <glyph glyph-name="Cdotaccent" unicode="&#x10a;" horiz-adv-x="698" 
d="M48 349c0 200 161 361 361 361c101 0 174 -34 242 -93c9 -8 9 -20 1 -28l-44 -45c-7 -9 -16 -9 -25 0c-47 41 -111 67 -173 67c-143 0 -251 -120 -251 -260s109 -259 252 -259c73 0 124 29 172 66c9 7 18 6 24 1l46 -45c8 -7 6 -20 -1 -27c-68 -66 -154 -97 -243 -97
c-200 0 -361 159 -361 359zM409 785c-37 0 -66 30 -66 67c0 38 29 68 66 68c38 0 68 -30 68 -68c0 -37 -30 -67 -68 -67z" />
    <glyph glyph-name="Ccedilla" unicode="&#xc7;" horiz-adv-x="698" 
d="M48 349c0 200 161 361 361 361c101 0 174 -34 242 -93c9 -8 9 -20 1 -28l-44 -45c-7 -9 -16 -9 -25 0c-47 41 -111 67 -173 67c-143 0 -251 -120 -251 -260s109 -259 252 -259c73 0 124 29 172 66c9 7 18 6 24 1l46 -45c8 -7 6 -20 -1 -27c-63 -61 -141 -92 -222 -96
l-36 -55c6 2 13 2 19 2c44 0 90 -23 90 -82c0 -68 -57 -100 -119 -100c-38 0 -66 11 -83 26c-7 7 -5 15 0 26l9 18c6 13 14 15 24 7c8 -7 25 -17 46 -17c30 0 50 10 50 37s-21 33 -49 33c-18 0 -34 -7 -44 -10c-9 -4 -20 8 -16 17l50 99c-182 18 -323 169 -323 357z" />
    <glyph glyph-name="Dcaron" unicode="&#x10e;" horiz-adv-x="739" 
d="M91 19v662c0 10 8 19 18 19h230c193 0 351 -157 351 -349c0 -194 -158 -351 -351 -351h-230c-10 0 -18 9 -18 19zM193 95h135c147 0 251 108 251 256c0 147 -104 254 -251 254h-135v-510zM317 768l-125 98c-6 4 -11 12 -6 19l20 27c6 8 11 10 23 3l100 -65l100 65
c12 8 17 5 23 -3l20 -27c5 -7 0 -15 -6 -19l-125 -98c-7 -5 -18 -5 -24 0z" />
    <glyph glyph-name="Dcroat" unicode="&#x110;" horiz-adv-x="739" 
d="M91 19v303h-29c-10 0 -18 9 -18 19v10c0 10 8 19 18 19h29v311c0 10 8 19 18 19h230c193 0 351 -157 351 -349c0 -194 -158 -351 -351 -351h-230c-10 0 -18 9 -18 19zM193 95h132c147 0 254 108 254 256c0 147 -107 254 -254 254h-132v-235h188c11 0 19 -9 19 -19v-11
c0 -10 -8 -18 -19 -18h-188v-227z" />
    <glyph glyph-name="Eth" unicode="&#xd0;" horiz-adv-x="739" 
d="M91 19v303h-29c-10 0 -18 9 -18 19v10c0 10 8 19 18 19h29v311c0 10 8 19 18 19h230c193 0 351 -157 351 -349c0 -194 -158 -351 -351 -351h-230c-10 0 -18 9 -18 19zM193 95h132c147 0 254 108 254 256c0 147 -107 254 -254 254h-132v-235h188c11 0 19 -9 19 -19v-11
c0 -10 -8 -18 -19 -18h-188v-227z" />
    <glyph glyph-name="Egrave" unicode="&#xc8;" horiz-adv-x="576" 
d="M91 19v662c0 10 8 19 19 19h400c11 0 19 -9 19 -19v-56c0 -10 -8 -19 -19 -19h-316v-204h267c10 0 19 -9 19 -19v-56c0 -11 -9 -19 -19 -19h-267v-215h316c11 0 19 -9 19 -19v-55c0 -10 -8 -19 -19 -19h-400c-11 0 -19 9 -19 19zM376 774l-168 72c-8 4 -11 14 -6 24
l23 44c5 9 20 7 26 3l157 -91c6 -3 10 -11 6 -19l-14 -28c-4 -9 -10 -11 -24 -5z" />
    <glyph glyph-name="Eacute" unicode="&#xc9;" horiz-adv-x="576" 
d="M91 19v662c0 10 8 19 19 19h400c11 0 19 -9 19 -19v-56c0 -10 -8 -19 -19 -19h-316v-204h267c10 0 19 -9 19 -19v-56c0 -11 -9 -19 -19 -19h-267v-215h316c11 0 19 -9 19 -19v-55c0 -10 -8 -19 -19 -19h-400c-11 0 -19 9 -19 19zM239 774c-13 -6 -20 -4 -24 5l-14 28
c-4 8 1 16 6 19l157 91c6 4 21 6 26 -3l23 -44c6 -10 2 -20 -6 -24z" />
    <glyph glyph-name="Ecircumflex" unicode="&#xca;" horiz-adv-x="576" 
d="M91 19v662c0 10 8 19 19 19h400c11 0 19 -9 19 -19v-56c0 -10 -8 -19 -19 -19h-316v-204h267c10 0 19 -9 19 -19v-56c0 -11 -9 -19 -19 -19h-267v-215h316c11 0 19 -9 19 -19v-55c0 -10 -8 -19 -19 -19h-400c-11 0 -19 9 -19 19zM205 769c-12 -7 -17 -5 -23 3l-20 27
c-5 7 0 15 6 19l125 98c6 5 17 5 24 0l125 -98c6 -4 11 -12 6 -19l-20 -27c-6 -8 -11 -11 -23 -3l-100 65z" />
    <glyph glyph-name="Ecaron" unicode="&#x11a;" horiz-adv-x="576" 
d="M91 19v662c0 10 8 19 19 19h400c11 0 19 -9 19 -19v-56c0 -10 -8 -19 -19 -19h-316v-204h267c10 0 19 -9 19 -19v-56c0 -11 -9 -19 -19 -19h-267v-215h316c11 0 19 -9 19 -19v-55c0 -10 -8 -19 -19 -19h-400c-11 0 -19 9 -19 19zM293 768l-125 98c-6 4 -11 12 -6 19
l20 27c6 8 11 10 23 3l100 -65l100 65c12 8 17 5 23 -3l20 -27c5 -7 0 -15 -6 -19l-125 -98c-7 -5 -18 -5 -24 0z" />
    <glyph glyph-name="Edieresis" unicode="&#xcb;" horiz-adv-x="576" 
d="M91 19v662c0 10 8 19 19 19h400c11 0 19 -9 19 -19v-56c0 -10 -8 -19 -19 -19h-316v-204h267c10 0 19 -9 19 -19v-56c0 -11 -9 -19 -19 -19h-267v-215h316c11 0 19 -9 19 -19v-55c0 -10 -8 -19 -19 -19h-400c-11 0 -19 9 -19 19zM423 776c-35 0 -62 28 -62 63
s27 62 62 62s63 -27 63 -62s-28 -63 -63 -63zM194 776c-35 0 -62 28 -62 63s27 62 62 62s63 -27 63 -62s-28 -63 -63 -63z" />
    <glyph glyph-name="Emacron" unicode="&#x112;" horiz-adv-x="576" 
d="M91 19v662c0 10 8 19 19 19h400c11 0 19 -9 19 -19v-56c0 -10 -8 -19 -19 -19h-316v-204h267c10 0 19 -9 19 -19v-56c0 -11 -9 -19 -19 -19h-267v-215h316c11 0 19 -9 19 -19v-55c0 -10 -8 -19 -19 -19h-400c-11 0 -19 9 -19 19zM180 814c-11 0 -19 8 -19 18v28
c0 11 8 19 19 19h256c11 0 19 -8 19 -19v-28c0 -10 -8 -18 -19 -18h-256z" />
    <glyph glyph-name="Ebreve" unicode="&#x114;" horiz-adv-x="576" 
d="M91 19v662c0 10 8 19 19 19h400c11 0 19 -9 19 -19v-56c0 -10 -8 -19 -19 -19h-316v-204h267c10 0 19 -9 19 -19v-56c0 -11 -9 -19 -19 -19h-267v-215h316c11 0 19 -9 19 -19v-55c0 -10 -8 -19 -19 -19h-400c-11 0 -19 9 -19 19zM308 768c-72 0 -128 50 -138 116
c-2 11 4 21 16 21h29c10 0 16 -8 18 -16c11 -34 38 -58 75 -58c33 0 62 27 72 58c3 10 10 16 18 16h31c12 0 18 -10 16 -21c-11 -66 -67 -116 -137 -116z" />
    <glyph glyph-name="Edotaccent" unicode="&#x116;" horiz-adv-x="576" 
d="M91 19v662c0 10 8 19 19 19h400c11 0 19 -9 19 -19v-56c0 -10 -8 -19 -19 -19h-316v-204h267c10 0 19 -9 19 -19v-56c0 -11 -9 -19 -19 -19h-267v-215h316c11 0 19 -9 19 -19v-55c0 -10 -8 -19 -19 -19h-400c-11 0 -19 9 -19 19zM312 785c-37 0 -66 30 -66 67
c0 38 29 68 66 68c38 0 68 -30 68 -68c0 -37 -30 -67 -68 -67z" />
    <glyph glyph-name="Eogonek" unicode="&#x118;" horiz-adv-x="576" 
d="M91 19v662c0 10 8 19 19 19h400c11 0 19 -9 19 -19v-56c0 -10 -8 -19 -19 -19h-316v-204h267c10 0 19 -9 19 -19v-56c0 -11 -9 -19 -19 -19h-267v-215h316c11 0 19 -9 19 -19v-53c0 -12 -5 -16 -12 -20c-35 -18 -99 -71 -99 -126c0 -31 16 -46 43 -46c28 0 54 20 62 27
c8 8 18 4 18 -6l1 -44c0 -11 -2 -21 -14 -29c-15 -9 -49 -23 -87 -23c-68 0 -103 45 -103 103c0 71 56 116 95 143h-323c-11 0 -19 9 -19 19z" />
    <glyph glyph-name="Gcircumflex" unicode="&#x11c;" horiz-adv-x="726" 
d="M48 349c0 200 161 361 360 361c96 0 175 -35 243 -93c8 -8 9 -20 1 -28c-15 -16 -30 -31 -45 -47c-8 -9 -16 -8 -26 1c-47 41 -109 68 -170 68c-142 0 -251 -120 -251 -260c0 -139 109 -259 251 -259c83 0 140 30 150 34v112h-98c-11 0 -19 8 -19 18v58c0 11 8 19 19 19
h183c10 0 18 -9 18 -19v-242c0 -5 -4 -13 -8 -16c0 0 -103 -66 -248 -66c-199 0 -360 159 -360 359zM307 769c-12 -7 -17 -5 -23 3l-20 27c-5 7 0 15 6 19l125 98c6 5 17 5 24 0l125 -98c6 -4 11 -12 6 -19l-20 -27c-6 -8 -11 -11 -23 -3l-100 65z" />
    <glyph glyph-name="Gbreve" unicode="&#x11e;" horiz-adv-x="726" 
d="M48 349c0 200 161 361 360 361c96 0 175 -35 243 -93c8 -8 9 -20 1 -28c-15 -16 -30 -31 -45 -47c-8 -9 -16 -8 -26 1c-47 41 -109 68 -170 68c-142 0 -251 -120 -251 -260c0 -139 109 -259 251 -259c83 0 140 30 150 34v112h-98c-11 0 -19 8 -19 18v58c0 11 8 19 19 19
h183c10 0 18 -9 18 -19v-242c0 -5 -4 -13 -8 -16c0 0 -103 -66 -248 -66c-199 0 -360 159 -360 359zM409 768c-72 0 -128 50 -138 116c-2 11 4 21 16 21h29c10 0 16 -8 18 -16c11 -34 38 -58 75 -58c33 0 62 27 72 58c3 10 10 16 18 16h31c12 0 18 -10 16 -21
c-11 -66 -67 -116 -137 -116z" />
    <glyph glyph-name="Gdotaccent" unicode="&#x120;" horiz-adv-x="726" 
d="M48 349c0 200 161 361 360 361c96 0 175 -35 243 -93c8 -8 9 -20 1 -28c-15 -16 -30 -31 -45 -47c-8 -9 -16 -8 -26 1c-47 41 -109 68 -170 68c-142 0 -251 -120 -251 -260c0 -139 109 -259 251 -259c83 0 140 30 150 34v112h-98c-11 0 -19 8 -19 18v58c0 11 8 19 19 19
h183c10 0 18 -9 18 -19v-242c0 -5 -4 -13 -8 -16c0 0 -103 -66 -248 -66c-199 0 -360 159 -360 359zM408 785c-37 0 -66 30 -66 67c0 38 29 68 66 68c38 0 68 -30 68 -68c0 -37 -30 -67 -68 -67z" />
    <glyph glyph-name="Gcommaaccent" unicode="&#x122;" horiz-adv-x="726" 
d="M48 349c0 200 161 361 360 361c96 0 175 -35 243 -93c8 -8 9 -20 1 -28c-15 -16 -30 -31 -45 -47c-8 -9 -16 -8 -26 1c-47 41 -109 68 -170 68c-142 0 -251 -120 -251 -260c0 -139 109 -259 251 -259c83 0 140 30 150 34v112h-98c-11 0 -19 8 -19 18v58c0 11 8 19 19 19
h183c10 0 18 -9 18 -19v-242c0 -5 -4 -13 -8 -16c0 0 -103 -66 -248 -66c-199 0 -360 159 -360 359zM338 -126c0 40 31 63 74 63c49 0 87 -30 87 -97c0 -60 -26 -103 -53 -132c-6 -6 -12 -6 -20 -1l-24 18c-8 6 -7 14 -1 20c17 15 30 42 30 67c0 7 -1 13 -3 17
c-2 -2 -15 -9 -32 -9c-35 0 -58 24 -58 54z" />
    <glyph glyph-name="Hcircumflex" unicode="&#x124;" horiz-adv-x="756" 
d="M91 19v662c0 10 9 19 19 19h66c11 0 19 -9 19 -19v-279h366v279c0 10 8 19 19 19h66c10 0 19 -9 19 -19v-662c0 -10 -9 -19 -19 -19h-66c-11 0 -19 9 -19 19v289h-366v-289c0 -10 -8 -19 -19 -19h-66c-10 0 -19 9 -19 19zM283 769c-12 -7 -17 -5 -23 3l-20 27
c-5 7 0 15 6 19l125 98c6 5 17 5 24 0l125 -98c6 -4 11 -12 6 -19l-20 -27c-6 -8 -11 -11 -23 -3l-100 65z" />
    <glyph glyph-name="Hbar" unicode="&#x126;" horiz-adv-x="756" 
d="M91 19v515h-24c-10 0 -18 9 -18 19v10c0 10 8 19 18 19h24v99c0 10 9 19 19 19h66c11 0 19 -9 19 -19v-99h366v99c0 10 8 19 19 19h66c10 0 19 -9 19 -19v-99h23c11 0 19 -9 19 -19v-11c0 -10 -8 -18 -19 -18h-23v-515c0 -10 -9 -19 -19 -19h-66c-11 0 -19 9 -19 19v289
h-366v-289c0 -10 -8 -19 -19 -19h-66c-10 0 -19 9 -19 19zM195 402h366v132h-366v-132z" />
    <glyph glyph-name="Igrave" unicode="&#xcc;" horiz-adv-x="286" 
d="M91 19v662c0 10 9 19 19 19h66c10 0 19 -9 19 -19v-662c0 -10 -9 -19 -19 -19h-66c-10 0 -19 9 -19 19zM211 774l-168 72c-8 4 -11 14 -6 24l23 44c5 9 20 7 26 3l157 -91c6 -3 10 -11 6 -19l-14 -28c-4 -9 -10 -11 -24 -5z" />
    <glyph glyph-name="Iacute" unicode="&#xcd;" horiz-adv-x="286" 
d="M91 19v662c0 10 9 19 19 19h66c10 0 19 -9 19 -19v-662c0 -10 -9 -19 -19 -19h-66c-10 0 -19 9 -19 19zM74 774c-13 -6 -20 -4 -24 5l-14 28c-4 8 1 16 6 19l157 91c6 4 21 6 26 -3l23 -44c6 -10 2 -20 -6 -24z" />
    <glyph glyph-name="Ibreve" unicode="&#x12c;" horiz-adv-x="286" 
d="M91 19v662c0 10 9 19 19 19h66c10 0 19 -9 19 -19v-662c0 -10 -9 -19 -19 -19h-66c-10 0 -19 9 -19 19zM144 768c-72 0 -128 50 -138 116c-2 11 4 21 16 21h29c10 0 16 -8 18 -16c11 -34 38 -58 75 -58c33 0 62 27 72 58c3 10 10 16 18 16h31c12 0 18 -10 16 -21
c-11 -66 -67 -116 -137 -116z" />
    <glyph glyph-name="Icircumflex" unicode="&#xce;" horiz-adv-x="286" 
d="M91 19v662c0 10 9 19 19 19h66c10 0 19 -9 19 -19v-662c0 -10 -9 -19 -19 -19h-66c-10 0 -19 9 -19 19zM42 769c-12 -7 -17 -5 -23 3l-20 27c-5 7 0 15 6 19l125 98c6 5 17 5 24 0l125 -98c6 -4 11 -12 6 -19l-20 -27c-6 -8 -11 -11 -23 -3l-100 65z" />
    <glyph glyph-name="Itilde" unicode="&#x128;" horiz-adv-x="286" 
d="M91 19v662c0 10 9 19 19 19h66c10 0 19 -9 19 -19v-662c0 -10 -9 -19 -19 -19h-66c-10 0 -19 9 -19 19zM21 792l-23 15c-10 6 -9 16 -6 23c9 18 39 84 98 84c58 0 77 -64 109 -64c23 0 31 25 41 40c6 10 13 16 25 9c8 -6 20 -11 26 -19c5 -8 2 -16 -3 -27
c-10 -22 -39 -75 -94 -75c-51 0 -78 65 -107 65c-24 0 -37 -28 -43 -41c-5 -11 -10 -17 -23 -10z" />
    <glyph glyph-name="Idieresis" unicode="&#xcf;" horiz-adv-x="286" 
d="M91 19v662c0 10 9 19 19 19h66c10 0 19 -9 19 -19v-662c0 -10 -9 -19 -19 -19h-66c-10 0 -19 9 -19 19zM258 776c-35 0 -62 28 -62 63s27 62 62 62s63 -27 63 -62s-28 -63 -63 -63zM29 776c-35 0 -62 28 -62 63s27 62 62 62s63 -27 63 -62s-28 -63 -63 -63z" />
    <glyph glyph-name="Imacron" unicode="&#x12a;" horiz-adv-x="286" 
d="M91 19v662c0 10 9 19 19 19h66c10 0 19 -9 19 -19v-662c0 -10 -9 -19 -19 -19h-66c-10 0 -19 9 -19 19zM16 814c-11 0 -19 8 -19 18v28c0 11 8 19 19 19h256c11 0 19 -8 19 -19v-28c0 -10 -8 -18 -19 -18h-256z" />
    <glyph glyph-name="Idotaccent" unicode="&#x130;" horiz-adv-x="286" 
d="M91 19v662c0 10 9 19 19 19h66c10 0 19 -9 19 -19v-662c0 -10 -9 -19 -19 -19h-66c-10 0 -19 9 -19 19zM143 785c-37 0 -66 30 -66 67c0 38 29 68 66 68c38 0 68 -30 68 -68c0 -37 -30 -67 -68 -67z" />
    <glyph glyph-name="Iogonek" unicode="&#x12e;" horiz-adv-x="286" 
d="M91 19v662c0 10 9 19 19 19h66c10 0 19 -9 19 -19v-662c0 -7 -4 -13 -9 -16c-33 -21 -102 -72 -102 -128c0 -31 16 -46 43 -46c28 0 54 20 62 27c8 8 18 4 18 -6l1 -44c0 -11 -2 -21 -14 -29c-15 -9 -49 -23 -87 -23c-68 0 -103 45 -103 103c0 72 59 119 98 145
c-7 3 -11 10 -11 17z" />
    <glyph glyph-name="Jcircumflex" unicode="&#x134;" horiz-adv-x="462" 
d="M19 63c-5 8 -4 18 2 25l36 39c14 12 23 8 32 -2c15 -17 43 -43 82 -43c49 0 101 28 101 116v483c0 10 8 19 19 19h66c11 0 19 -9 19 -19v-482c0 -139 -88 -209 -205 -209c-87 0 -135 52 -152 73zM225 769c-12 -7 -17 -5 -23 3l-20 27c-5 7 0 15 6 19l125 98
c6 5 17 5 24 0l125 -98c6 -4 11 -12 6 -19l-20 -27c-6 -8 -11 -11 -23 -3l-100 65z" />
    <glyph glyph-name="Kcommaaccent" unicode="&#x136;" horiz-adv-x="621" 
d="M91 24v652c0 13 10 24 24 24h58c13 0 24 -11 24 -24v-277l282 291c4 5 11 10 19 10h75c18 0 28 -21 14 -36l-289 -294l306 -337c8 -10 3 -33 -18 -33h-80c-10 0 -16 4 -18 7l-291 328v-311c0 -13 -11 -24 -24 -24h-58c-14 0 -24 11 -24 24zM258 -126c0 40 31 63 74 63
c49 0 87 -30 87 -97c0 -60 -26 -103 -53 -132c-6 -6 -12 -6 -20 -1l-24 18c-8 6 -7 14 -1 20c17 15 30 42 30 67c0 7 -1 13 -3 17c-2 -2 -15 -9 -32 -9c-35 0 -58 24 -58 54z" />
    <glyph glyph-name="Lacute" unicode="&#x139;" horiz-adv-x="501" 
d="M91 19v662c0 10 8 19 19 19h66c10 0 19 -9 19 -19v-588h271c11 0 19 -9 19 -19v-55c0 -10 -8 -19 -19 -19h-356c-11 0 -19 9 -19 19zM74 774c-13 -6 -20 -4 -24 5l-14 28c-4 8 1 16 6 19l157 91c6 4 21 6 26 -3l23 -44c6 -10 2 -20 -6 -24z" />
    <glyph glyph-name="Lcaron" unicode="&#x13d;" horiz-adv-x="511" 
d="M91 19v662c0 10 8 19 19 19h66c10 0 19 -9 19 -19v-588h271c11 0 19 -9 19 -19v-55c0 -10 -8 -19 -19 -19h-356c-11 0 -19 9 -19 19zM314 647c0 40 31 63 74 63c49 0 87 -30 87 -97c0 -60 -26 -103 -53 -132c-6 -6 -12 -6 -20 -1l-24 18c-8 6 -7 14 -1 20
c17 15 30 42 30 67c0 7 -1 13 -3 17c-2 -2 -15 -9 -32 -9c-35 0 -58 24 -58 54z" />
    <glyph glyph-name="Lcommaaccent" unicode="&#x13b;" horiz-adv-x="501" 
d="M91 19v662c0 10 8 19 19 19h66c10 0 19 -9 19 -19v-588h271c11 0 19 -9 19 -19v-55c0 -10 -8 -19 -19 -19h-356c-11 0 -19 9 -19 19zM216 -126c0 40 31 63 74 63c49 0 87 -30 87 -97c0 -60 -26 -103 -53 -132c-6 -6 -12 -6 -20 -1l-24 18c-8 6 -7 14 -1 20
c17 15 30 42 30 67c0 7 -1 13 -3 17c-2 -2 -15 -9 -32 -9c-35 0 -58 24 -58 54z" />
    <glyph glyph-name="Lslash" unicode="&#x141;" horiz-adv-x="501" 
d="M91 19v289l-22 -12c-8 -5 -20 -2 -25 7l-5 9c-5 8 -3 20 6 26l46 25v318c0 10 8 19 19 19h66c10 0 19 -9 19 -19v-257l99 57c10 6 21 1 26 -7l5 -9c5 -9 2 -20 -7 -26l-123 -71v-275h271c11 0 19 -9 19 -19v-55c0 -10 -8 -19 -19 -19h-356c-11 0 -19 9 -19 19z" />
    <glyph glyph-name="Ldot" unicode="&#x13f;" horiz-adv-x="521" 
d="M91 19v662c0 10 8 19 19 19h66c10 0 19 -9 19 -19v-588h271c11 0 19 -9 19 -19v-55c0 -10 -8 -19 -19 -19h-356c-11 0 -19 9 -19 19zM437 292c-37 0 -66 30 -66 67c0 38 29 68 66 68c38 0 68 -30 68 -68c0 -37 -30 -67 -68 -67z" />
    <glyph glyph-name="Nacute" unicode="&#x143;" horiz-adv-x="763" 
d="M91 19v673c0 10 9 18 19 18h8c10 0 17 0 30 -15l420 -487h2v473c0 10 8 19 19 19h64c10 0 19 -9 19 -19v-673c0 -10 -9 -18 -19 -18h-9c-10 0 -17 0 -29 14l-421 502h-2v-487c0 -10 -8 -19 -19 -19h-63c-10 0 -19 9 -19 19zM321 774c-13 -6 -20 -4 -24 5l-14 28
c-4 8 1 16 6 19l157 91c6 4 21 6 26 -3l23 -44c6 -10 2 -20 -6 -24z" />
    <glyph glyph-name="Ncaron" unicode="&#x147;" horiz-adv-x="763" 
d="M91 19v673c0 10 9 18 19 18h8c10 0 17 0 30 -15l420 -487h2v473c0 10 8 19 19 19h64c10 0 19 -9 19 -19v-673c0 -10 -9 -18 -19 -18h-9c-10 0 -17 0 -29 14l-421 502h-2v-487c0 -10 -8 -19 -19 -19h-63c-10 0 -19 9 -19 19zM374 768l-125 98c-6 4 -11 12 -6 19l20 27
c6 8 11 10 23 3l100 -65l100 65c12 8 17 5 23 -3l20 -27c5 -7 0 -15 -6 -19l-125 -98c-7 -5 -18 -5 -24 0z" />
    <glyph glyph-name="Ntilde" unicode="&#xd1;" horiz-adv-x="763" 
d="M91 19v673c0 10 9 18 19 18h8c10 0 17 0 30 -15l420 -487h2v473c0 10 8 19 19 19h64c10 0 19 -9 19 -19v-673c0 -10 -9 -18 -19 -18h-9c-10 0 -17 0 -29 14l-421 502h-2v-487c0 -10 -8 -19 -19 -19h-63c-10 0 -19 9 -19 19zM264 792l-23 15c-10 6 -9 16 -6 23
c9 18 39 84 98 84c58 0 77 -64 109 -64c23 0 31 25 41 40c6 10 13 16 25 9c8 -6 20 -11 26 -19c5 -8 2 -16 -3 -27c-10 -22 -39 -75 -94 -75c-51 0 -78 65 -107 65c-24 0 -37 -28 -43 -41c-5 -11 -10 -17 -23 -10z" />
    <glyph glyph-name="Ncommaaccent" unicode="&#x145;" horiz-adv-x="763" 
d="M91 19v673c0 10 9 18 19 18h8c10 0 17 0 30 -15l420 -487h2v473c0 10 8 19 19 19h64c10 0 19 -9 19 -19v-673c0 -10 -9 -18 -19 -18h-9c-10 0 -17 0 -29 14l-421 502h-2v-487c0 -10 -8 -19 -19 -19h-63c-10 0 -19 9 -19 19zM312 -126c0 40 31 63 74 63
c49 0 87 -30 87 -97c0 -60 -26 -103 -53 -132c-6 -6 -12 -6 -20 -1l-24 18c-8 6 -7 14 -1 20c17 15 30 42 30 67c0 7 -1 13 -3 17c-2 -2 -15 -9 -32 -9c-35 0 -58 24 -58 54z" />
    <glyph glyph-name="Ograve" unicode="&#xd2;" horiz-adv-x="815" 
d="M48 349c0 200 159 361 359 361s360 -161 360 -361s-160 -359 -360 -359s-359 159 -359 359zM148 349c0 -143 117 -262 259 -262c143 0 260 119 260 262c0 142 -117 264 -260 264c-142 0 -259 -122 -259 -264zM476 774l-168 72c-8 4 -11 14 -6 24l23 44c5 9 20 7 26 3
l157 -91c6 -3 10 -11 6 -19l-14 -28c-4 -9 -10 -11 -24 -5z" />
    <glyph glyph-name="Oacute" unicode="&#xd3;" horiz-adv-x="815" 
d="M48 349c0 200 159 361 359 361s360 -161 360 -361s-160 -359 -360 -359s-359 159 -359 359zM148 349c0 -143 117 -262 259 -262c143 0 260 119 260 262c0 142 -117 264 -260 264c-142 0 -259 -122 -259 -264zM340 774c-13 -6 -20 -4 -24 5l-14 28c-4 8 1 16 6 19l157 91
c6 4 21 6 26 -3l23 -44c6 -10 2 -20 -6 -24z" />
    <glyph glyph-name="Ocircumflex" unicode="&#xd4;" horiz-adv-x="815" 
d="M48 349c0 200 159 361 359 361s360 -161 360 -361s-160 -359 -360 -359s-359 159 -359 359zM148 349c0 -143 117 -262 259 -262c143 0 260 119 260 262c0 142 -117 264 -260 264c-142 0 -259 -122 -259 -264zM306 769c-12 -7 -17 -5 -23 3l-20 27c-5 7 0 15 6 19l125 98
c6 5 17 5 24 0l125 -98c6 -4 11 -12 6 -19l-20 -27c-6 -8 -11 -11 -23 -3l-100 65z" />
    <glyph glyph-name="Otilde" unicode="&#xd5;" horiz-adv-x="815" 
d="M48 349c0 200 159 361 359 361s360 -161 360 -361s-160 -359 -360 -359s-359 159 -359 359zM148 349c0 -143 117 -262 259 -262c143 0 260 119 260 262c0 142 -117 264 -260 264c-142 0 -259 -122 -259 -264zM285 792l-23 15c-10 6 -9 16 -6 23c9 18 39 84 98 84
c58 0 77 -64 109 -64c23 0 31 25 41 40c6 10 13 16 25 9c8 -6 20 -11 26 -19c5 -8 2 -16 -3 -27c-10 -22 -39 -75 -94 -75c-51 0 -78 65 -107 65c-24 0 -37 -28 -43 -41c-5 -11 -10 -17 -23 -10z" />
    <glyph glyph-name="Odieresis" unicode="&#xd6;" horiz-adv-x="815" 
d="M48 349c0 200 159 361 359 361s360 -161 360 -361s-160 -359 -360 -359s-359 159 -359 359zM148 349c0 -143 117 -262 259 -262c143 0 260 119 260 262c0 142 -117 264 -260 264c-142 0 -259 -122 -259 -264zM522 776c-35 0 -62 28 -62 63s27 62 62 62s63 -27 63 -62
s-28 -63 -63 -63zM293 776c-35 0 -62 28 -62 63s27 62 62 62s63 -27 63 -62s-28 -63 -63 -63z" />
    <glyph glyph-name="Omacron" unicode="&#x14c;" horiz-adv-x="815" 
d="M48 349c0 200 159 361 359 361s360 -161 360 -361s-160 -359 -360 -359s-359 159 -359 359zM148 349c0 -143 117 -262 259 -262c143 0 260 119 260 262c0 142 -117 264 -260 264c-142 0 -259 -122 -259 -264zM280 814c-11 0 -19 8 -19 18v28c0 11 8 19 19 19h256
c11 0 19 -8 19 -19v-28c0 -10 -8 -18 -19 -18h-256z" />
    <glyph glyph-name="Obreve" unicode="&#x14e;" horiz-adv-x="815" 
d="M48 349c0 200 159 361 359 361s360 -161 360 -361s-160 -359 -360 -359s-359 159 -359 359zM148 349c0 -143 117 -262 259 -262c143 0 260 119 260 262c0 142 -117 264 -260 264c-142 0 -259 -122 -259 -264zM408 768c-72 0 -128 50 -138 116c-2 11 4 21 16 21h29
c10 0 16 -8 18 -16c11 -34 38 -58 75 -58c33 0 62 27 72 58c3 10 10 16 18 16h31c12 0 18 -10 16 -21c-11 -66 -67 -116 -137 -116z" />
    <glyph glyph-name="Ohungarumlaut" unicode="&#x150;" horiz-adv-x="815" 
d="M48 349c0 200 159 361 359 361s360 -161 360 -361s-160 -359 -360 -359s-359 159 -359 359zM148 349c0 -143 117 -262 259 -262c143 0 260 119 260 262c0 142 -117 264 -260 264c-142 0 -259 -122 -259 -264zM494 768c-16 0 -22 9 -19 19l43 141c3 10 9 19 19 19h57
c19 0 26 -12 18 -25l-78 -139c-4 -7 -11 -15 -18 -15h-22zM328 768c-14 0 -22 9 -19 19l43 141c3 10 9 19 19 19h57c19 0 25 -12 18 -25l-78 -139c-4 -8 -11 -15 -18 -15h-22z" />
    <glyph glyph-name="Oslash" unicode="&#xd8;" horiz-adv-x="815" 
d="M74 22c-7 7 -8 19 -1 26l63 63c-55 63 -88 146 -88 238c0 200 159 361 359 361c91 0 175 -35 238 -90l66 65c7 7 19 7 26 0l7 -7c7 -7 7 -19 0 -26l-65 -66c54 -63 88 -146 88 -237c0 -200 -160 -359 -360 -359c-92 0 -174 32 -237 87l-63 -63c-7 -7 -19 -6 -26 1z
M209 183l365 366c-45 37 -104 61 -167 61c-142 0 -259 -119 -259 -261c0 -63 23 -121 61 -166zM242 149c45 -37 103 -59 165 -59c143 0 260 117 260 259c0 63 -22 121 -60 165z" />
    <glyph glyph-name="Oslashacute" unicode="&#x1fe;" horiz-adv-x="815" 
d="M74 22c-7 7 -8 19 -1 26l63 63c-55 63 -88 146 -88 238c0 200 159 361 359 361c91 0 175 -35 238 -90l66 65c7 7 19 7 26 0l7 -7c7 -7 7 -19 0 -26l-65 -66c54 -63 88 -146 88 -237c0 -200 -160 -359 -360 -359c-92 0 -174 32 -237 87l-63 -63c-7 -7 -19 -6 -26 1z
M209 183l365 366c-45 37 -104 61 -167 61c-142 0 -259 -119 -259 -261c0 -63 23 -121 61 -166zM242 149c45 -37 103 -59 165 -59c143 0 260 117 260 259c0 63 -22 121 -60 165zM338 774c-13 -6 -20 -4 -24 5l-14 28c-4 8 1 16 6 19l157 91c6 4 21 6 26 -3l23 -44
c6 -10 2 -20 -6 -24z" />
    <glyph glyph-name="OE" unicode="&#x152;" horiz-adv-x="965" 
d="M48 349c0 200 159 361 359 361c50 0 92 -10 92 -10h400c11 0 19 -9 19 -19v-56c0 -10 -8 -19 -19 -19h-316v-204h267c10 0 19 -9 19 -19v-56c0 -11 -9 -19 -19 -19h-267v-215h316c11 0 19 -9 19 -19v-55c0 -10 -8 -19 -19 -19h-400s-49 -10 -92 -10
c-200 0 -359 159 -359 359zM148 349c0 -143 117 -260 259 -260c25 0 49 2 73 10v500c-24 7 -48 11 -73 11c-142 0 -259 -119 -259 -261z" />
    <glyph glyph-name="Racute" unicode="&#x154;" horiz-adv-x="655" 
d="M91 19v662c0 10 8 19 19 19h272c120 0 218 -95 218 -214c0 -92 -61 -168 -148 -203l137 -254c7 -13 0 -29 -17 -29h-75c-11 0 -17 5 -21 13l-131 261h-151v-255c0 -10 -9 -19 -19 -19h-65c-11 0 -19 9 -19 19zM196 360h178c65 0 122 55 122 124c0 65 -57 119 -122 119
h-178v-243zM241 774c-13 -6 -20 -4 -24 5l-14 28c-4 8 1 16 6 19l157 91c6 4 21 6 26 -3l23 -44c6 -10 2 -20 -6 -24z" />
    <glyph glyph-name="Rcaron" unicode="&#x158;" horiz-adv-x="655" 
d="M91 19v662c0 10 8 19 19 19h272c120 0 218 -95 218 -214c0 -92 -61 -168 -148 -203l137 -254c7 -13 0 -29 -17 -29h-75c-11 0 -17 5 -21 13l-131 261h-151v-255c0 -10 -9 -19 -19 -19h-65c-11 0 -19 9 -19 19zM196 360h178c65 0 122 55 122 124c0 65 -57 119 -122 119
h-178v-243zM291 768l-125 98c-6 4 -11 12 -6 19l20 27c6 8 11 10 23 3l100 -65l100 65c12 8 17 5 23 -3l20 -27c5 -7 0 -15 -6 -19l-125 -98c-7 -5 -18 -5 -24 0z" />
    <glyph glyph-name="Rcommaaccent" unicode="&#x156;" horiz-adv-x="655" 
d="M91 19v662c0 10 8 19 19 19h272c120 0 218 -95 218 -214c0 -92 -61 -168 -148 -203l137 -254c7 -13 0 -29 -17 -29h-75c-11 0 -17 5 -21 13l-131 261h-151v-255c0 -10 -9 -19 -19 -19h-65c-11 0 -19 9 -19 19zM196 360h178c65 0 122 55 122 124c0 65 -57 119 -122 119
h-178v-243zM246 -126c0 40 31 63 74 63c49 0 87 -30 87 -97c0 -60 -26 -103 -53 -132c-6 -6 -12 -6 -20 -1l-24 18c-8 6 -7 14 -1 20c17 15 30 42 30 67c0 7 -1 13 -3 17c-2 -2 -15 -9 -32 -9c-35 0 -58 24 -58 54z" />
    <glyph glyph-name="Sacute" unicode="&#x15a;" horiz-adv-x="539" 
d="M59 69c-9 8 -17 15 -6 32l26 41c8 13 23 17 34 8c47 -39 83 -69 160 -69c69 0 113 42 113 93c0 60 -52 98 -151 139c-102 43 -182 96 -182 212c0 78 60 185 219 185c100 0 175 -52 185 -59c8 -5 16 -19 6 -34l-25 -38c-8 -13 -21 -19 -35 -10c-39 25 -77 50 -135 50
c-84 0 -113 -53 -113 -90c0 -57 44 -92 127 -126c116 -47 215 -102 215 -224c0 -104 -93 -189 -223 -189c-122 0 -199 64 -215 79zM207 774c-13 -6 -20 -4 -24 5l-14 28c-4 8 1 16 6 19l157 91c6 4 21 6 26 -3l23 -44c6 -10 2 -20 -6 -24z" />
    <glyph glyph-name="Scircumflex" unicode="&#x15c;" horiz-adv-x="539" 
d="M59 69c-9 8 -17 15 -6 32l26 41c8 13 23 17 34 8c47 -39 83 -69 160 -69c69 0 113 42 113 93c0 60 -52 98 -151 139c-102 43 -182 96 -182 212c0 78 60 185 219 185c100 0 175 -52 185 -59c8 -5 16 -19 6 -34l-25 -38c-8 -13 -21 -19 -35 -10c-39 25 -77 50 -135 50
c-84 0 -113 -53 -113 -90c0 -57 44 -92 127 -126c116 -47 215 -102 215 -224c0 -104 -93 -189 -223 -189c-122 0 -199 64 -215 79zM168 769c-12 -7 -17 -5 -23 3l-20 27c-5 7 0 15 6 19l125 98c6 5 17 5 24 0l125 -98c6 -4 11 -12 6 -19l-20 -27c-6 -8 -11 -11 -23 -3
l-100 65z" />
    <glyph glyph-name="Scaron" unicode="&#x160;" horiz-adv-x="539" 
d="M59 69c-9 8 -17 15 -6 32l26 41c8 13 23 17 34 8c47 -39 83 -69 160 -69c69 0 113 42 113 93c0 60 -52 98 -151 139c-102 43 -182 96 -182 212c0 78 60 185 219 185c100 0 175 -52 185 -59c8 -5 16 -19 6 -34l-25 -38c-8 -13 -21 -19 -35 -10c-39 25 -77 50 -135 50
c-84 0 -113 -53 -113 -90c0 -57 44 -92 127 -126c116 -47 215 -102 215 -224c0 -104 -93 -189 -223 -189c-122 0 -199 64 -215 79zM255 768l-125 98c-6 4 -11 12 -6 19l20 27c6 8 11 10 23 3l100 -65l100 65c12 8 17 5 23 -3l20 -27c5 -7 0 -15 -6 -19l-125 -98
c-7 -5 -18 -5 -24 0z" />
    <glyph glyph-name="Scedilla" unicode="&#x15e;" horiz-adv-x="539" 
d="M267 -64c6 2 13 2 19 2c44 0 90 -23 90 -82c0 -68 -57 -100 -119 -100c-38 0 -66 11 -83 26c-7 7 -5 15 0 26l9 18c6 13 14 15 24 7c8 -7 25 -17 46 -17c30 0 50 10 50 37s-21 33 -49 33c-18 0 -34 -7 -44 -10c-9 -4 -20 8 -16 17l50 99c-105 8 -171 63 -185 77
c-9 8 -16 15 -6 32c9 13 17 28 26 41s23 17 34 8c6 -5 83 -69 160 -69c69 0 113 42 113 93c0 60 -52 98 -151 139c-102 43 -182 96 -182 212c0 78 60 185 219 185c100 0 175 -52 185 -59c8 -5 16 -19 6 -34l-25 -38c-8 -13 -21 -19 -35 -10c-7 4 -77 50 -135 50
c-84 0 -113 -53 -113 -90c0 -57 44 -92 127 -126c116 -47 215 -102 215 -224c0 -96 -79 -176 -194 -187z" />
    <glyph glyph-name="Scommaaccent" unicode="&#x218;" horiz-adv-x="539" 
d="M59 69c-9 8 -17 15 -6 32l26 41c8 13 23 17 34 8c47 -39 83 -69 160 -69c69 0 113 42 113 93c0 60 -52 98 -151 139c-102 43 -182 96 -182 212c0 78 60 185 219 185c100 0 175 -52 185 -59c8 -5 16 -19 6 -34l-25 -38c-8 -13 -21 -19 -35 -10c-39 25 -77 50 -135 50
c-84 0 -113 -53 -113 -90c0 -57 44 -92 127 -126c116 -47 215 -102 215 -224c0 -104 -93 -189 -223 -189c-122 0 -199 64 -215 79zM208 -126c0 40 31 63 74 63c49 0 87 -30 87 -97c0 -60 -26 -103 -53 -132c-6 -6 -12 -6 -20 -1l-24 18c-8 6 -7 14 -1 20c17 15 30 42 30 67
c0 7 -1 13 -3 17c-2 -2 -15 -9 -32 -9c-35 0 -58 24 -58 54z" />
    <glyph glyph-name="Tcaron" unicode="&#x164;" horiz-adv-x="520" 
d="M208 19v587h-163c-11 0 -19 9 -19 19v56c0 10 8 19 19 19h430c11 0 19 -9 19 -19v-56c0 -10 -8 -19 -19 -19h-163v-587c0 -10 -9 -19 -19 -19h-66c-10 0 -19 9 -19 19zM247 768l-125 98c-6 4 -11 12 -6 19l20 27c6 8 11 10 23 3l100 -65l100 65c12 8 17 5 23 -3l20 -27
c5 -7 0 -15 -6 -19l-125 -98c-7 -5 -18 -5 -24 0z" />
    <glyph glyph-name="Tcommaaccent" unicode="&#x162;" horiz-adv-x="520" 
d="M208 19v587h-163c-11 0 -19 9 -19 19v56c0 10 8 19 19 19h430c11 0 19 -9 19 -19v-56c0 -10 -8 -19 -19 -19h-163v-587c0 -10 -9 -19 -19 -19h-4l-42 -64c6 2 13 2 19 2c44 0 85 -23 85 -82c0 -68 -52 -100 -114 -100c-38 0 -66 11 -83 26c-7 7 -5 15 0 26l9 18
c6 13 14 15 24 7c8 -7 25 -17 46 -17c30 0 50 15 50 42s-21 38 -49 38c-18 0 -29 -7 -39 -10c-9 -4 -20 8 -16 17l49 97h-1c-10 0 -19 9 -19 19z" />
    <glyph glyph-name="uni021A" unicode="&#x21a;" horiz-adv-x="520" 
d="M208 19v587h-163c-11 0 -19 9 -19 19v56c0 10 8 19 19 19h430c11 0 19 -9 19 -19v-56c0 -10 -8 -19 -19 -19h-163v-587c0 -10 -9 -19 -19 -19h-66c-10 0 -19 9 -19 19zM185 -126c0 40 31 63 74 63c49 0 87 -30 87 -97c0 -60 -26 -103 -53 -132c-6 -6 -12 -6 -20 -1
l-24 18c-8 6 -7 14 -1 20c17 15 30 42 30 67c0 7 -1 13 -3 17c-2 -2 -15 -9 -32 -9c-35 0 -58 24 -58 54z" />
    <glyph glyph-name="Tbar" unicode="&#x166;" horiz-adv-x="522" 
d="M209 19v274h-105c-10 0 -18 9 -18 19v10c0 10 8 19 18 19h105v265h-163c-11 0 -19 9 -19 19v56c0 10 8 19 19 19h430c11 0 19 -9 19 -19v-56c0 -10 -8 -19 -19 -19h-163v-265h104c11 0 19 -9 19 -19v-11c0 -10 -8 -18 -19 -18h-104v-274c0 -10 -9 -19 -19 -19h-66
c-10 0 -19 9 -19 19z" />
    <glyph glyph-name="Thorn" unicode="&#xde;" horiz-adv-x="591" 
d="M91 19v662c0 10 8 19 19 19h65c10 0 19 -9 19 -19v-108h144c123 1 224 -100 224 -221c0 -124 -101 -225 -223 -225h-145v-108c0 -10 -9 -19 -19 -19h-65c-11 0 -19 9 -19 19zM194 225h138c69 0 127 56 127 129c0 68 -58 120 -127 120h-138v-249z" />
    <glyph glyph-name="Ugrave" unicode="&#xd9;" horiz-adv-x="712" 
d="M84 253v428c0 10 9 19 19 19h67c11 0 19 -9 19 -19v-421c0 -100 64 -170 166 -170c103 0 168 69 168 168v423c0 10 8 19 19 19h67c10 0 19 -9 19 -19v-428c0 -152 -115 -263 -273 -263c-157 0 -271 111 -271 263zM423 774l-168 72c-8 4 -11 14 -6 24l23 44c5 9 20 7 26 3
l157 -91c6 -3 10 -11 6 -19l-14 -28c-4 -9 -10 -11 -24 -5z" />
    <glyph glyph-name="Uacute" unicode="&#xda;" horiz-adv-x="712" 
d="M84 253v428c0 10 9 19 19 19h67c11 0 19 -9 19 -19v-421c0 -100 64 -170 166 -170c103 0 168 69 168 168v423c0 10 8 19 19 19h67c10 0 19 -9 19 -19v-428c0 -152 -115 -263 -273 -263c-157 0 -271 111 -271 263zM287 774c-13 -6 -20 -4 -24 5l-14 28c-4 8 1 16 6 19
l157 91c6 4 21 6 26 -3l23 -44c6 -10 2 -20 -6 -24z" />
    <glyph glyph-name="Ucircumflex" unicode="&#xdb;" horiz-adv-x="712" 
d="M84 253v428c0 10 9 19 19 19h67c11 0 19 -9 19 -19v-421c0 -100 64 -170 166 -170c103 0 168 69 168 168v423c0 10 8 19 19 19h67c10 0 19 -9 19 -19v-428c0 -152 -115 -263 -273 -263c-157 0 -271 111 -271 263zM257 769c-12 -7 -17 -5 -23 3l-20 27c-5 7 0 15 6 19
l125 98c6 5 17 5 24 0l125 -98c6 -4 11 -12 6 -19l-20 -27c-6 -8 -11 -11 -23 -3l-100 65z" />
    <glyph glyph-name="Utilde" unicode="&#x168;" horiz-adv-x="712" 
d="M84 253v428c0 10 9 19 19 19h67c11 0 19 -9 19 -19v-421c0 -100 64 -170 166 -170c103 0 168 69 168 168v423c0 10 8 19 19 19h67c10 0 19 -9 19 -19v-428c0 -152 -115 -263 -273 -263c-157 0 -271 111 -271 263zM246 792l-23 15c-10 6 -9 16 -6 23c9 18 39 84 98 84
c58 0 77 -64 109 -64c23 0 31 25 41 40c6 10 13 16 25 9c8 -6 20 -11 26 -19c5 -8 2 -16 -3 -27c-10 -22 -39 -75 -94 -75c-51 0 -78 65 -107 65c-24 0 -37 -28 -43 -41c-5 -11 -10 -17 -23 -10z" />
    <glyph glyph-name="Udieresis" unicode="&#xdc;" horiz-adv-x="712" 
d="M84 253v428c0 10 9 19 19 19h67c11 0 19 -9 19 -19v-421c0 -100 64 -170 166 -170c103 0 168 69 168 168v423c0 10 8 19 19 19h67c10 0 19 -9 19 -19v-428c0 -152 -115 -263 -273 -263c-157 0 -271 111 -271 263zM474 776c-35 0 -62 28 -62 63s27 62 62 62s63 -27 63 -62
s-28 -63 -63 -63zM245 776c-35 0 -62 28 -62 63s27 62 62 62s63 -27 63 -62s-28 -63 -63 -63z" />
    <glyph glyph-name="Umacron" unicode="&#x16a;" horiz-adv-x="712" 
d="M84 253v428c0 10 9 19 19 19h67c11 0 19 -9 19 -19v-421c0 -100 64 -170 166 -170c103 0 168 69 168 168v423c0 10 8 19 19 19h67c10 0 19 -9 19 -19v-428c0 -152 -115 -263 -273 -263c-157 0 -271 111 -271 263zM232 814c-11 0 -19 8 -19 18v28c0 11 8 19 19 19h256
c11 0 19 -8 19 -19v-28c0 -10 -8 -18 -19 -18h-256z" />
    <glyph glyph-name="Ubreve" unicode="&#x16c;" horiz-adv-x="712" 
d="M84 253v428c0 10 9 19 19 19h67c11 0 19 -9 19 -19v-421c0 -100 64 -170 166 -170c103 0 168 69 168 168v423c0 10 8 19 19 19h67c10 0 19 -9 19 -19v-428c0 -152 -115 -263 -273 -263c-157 0 -271 111 -271 263zM363 768c-72 0 -128 50 -138 116c-2 11 4 21 16 21h29
c10 0 16 -8 18 -16c11 -34 38 -58 75 -58c33 0 62 27 72 58c3 10 10 16 18 16h31c12 0 18 -10 16 -21c-11 -66 -67 -116 -137 -116z" />
    <glyph glyph-name="Uring" unicode="&#x16e;" horiz-adv-x="712" 
d="M84 253v428c0 10 9 19 19 19h67c11 0 19 -9 19 -19v-421c0 -100 64 -170 166 -170c103 0 168 69 168 168v423c0 10 8 19 19 19h67c10 0 19 -9 19 -19v-428c0 -152 -115 -263 -273 -263c-157 0 -271 111 -271 263zM359 756c-62 0 -111 49 -111 111s49 111 111 111
c61 0 111 -49 111 -111s-50 -111 -111 -111zM359 811c29 0 53 27 53 56s-24 53 -53 53c-31 0 -56 -24 -56 -53s24 -56 56 -56z" />
    <glyph glyph-name="Uhungarumlaut" unicode="&#x170;" horiz-adv-x="712" 
d="M84 253v428c0 10 9 19 19 19h67c11 0 19 -9 19 -19v-421c0 -100 64 -170 166 -170c103 0 168 69 168 168v423c0 10 8 19 19 19h67c10 0 19 -9 19 -19v-428c0 -152 -115 -263 -273 -263c-157 0 -271 111 -271 263zM432 768c-16 0 -22 9 -19 19l43 141c3 10 9 19 19 19h57
c19 0 26 -12 18 -25l-78 -139c-4 -7 -11 -15 -18 -15h-22zM266 768c-14 0 -22 9 -19 19l43 141c3 10 9 19 19 19h57c19 0 25 -12 18 -25l-78 -139c-4 -8 -11 -15 -18 -15h-22z" />
    <glyph glyph-name="Uogonek" unicode="&#x172;" horiz-adv-x="712" 
d="M84 261v420c0 10 9 19 19 19h67c11 0 19 -9 19 -19v-413c0 -100 64 -178 166 -178c103 0 168 77 168 176v415c0 10 8 19 19 19h67c10 0 19 -9 19 -19v-420c0 -135 -91 -244 -223 -266c-35 -25 -88 -70 -88 -120c0 -31 16 -46 43 -46c28 0 54 20 62 27c8 8 18 4 18 -6
l1 -44c0 -11 -2 -21 -14 -29c-15 -9 -49 -23 -87 -23c-68 0 -103 45 -103 103c0 64 46 108 84 135c-139 16 -237 128 -237 269z" />
    <glyph glyph-name="Wacute" unicode="&#x1e82;" horiz-adv-x="886" 
d="M215 4l-189 672c-4 14 4 24 18 24h67c8 0 16 -7 18 -14l121 -459h4l163 472c2 6 9 11 17 11h18c8 0 15 -5 17 -11l165 -472h4l119 459c2 7 10 14 18 14h67c14 0 22 -10 18 -24l-189 -672c-2 -8 -10 -14 -18 -14h-16c-7 0 -15 5 -17 11l-176 497h-5l-173 -497
c-2 -6 -10 -11 -17 -11h-16c-8 0 -16 6 -18 14zM373 774c-13 -6 -20 -4 -24 5l-14 28c-4 8 1 16 6 19l157 91c6 4 21 6 26 -3l23 -44c6 -10 2 -20 -6 -24z" />
    <glyph glyph-name="Wcircumflex" unicode="&#x174;" horiz-adv-x="886" 
d="M215 4l-189 672c-4 14 4 24 18 24h67c8 0 16 -7 18 -14l121 -459h4l163 472c2 6 9 11 17 11h18c8 0 15 -5 17 -11l165 -472h4l119 459c2 7 10 14 18 14h67c14 0 22 -10 18 -24l-189 -672c-2 -8 -10 -14 -18 -14h-16c-7 0 -15 5 -17 11l-176 497h-5l-173 -497
c-2 -6 -10 -11 -17 -11h-16c-8 0 -16 6 -18 14zM342 769c-12 -7 -17 -5 -23 3l-20 27c-5 7 0 15 6 19l125 98c6 5 17 5 24 0l125 -98c6 -4 11 -12 6 -19l-20 -27c-6 -8 -11 -11 -23 -3l-100 65z" />
    <glyph glyph-name="Wdieresis" unicode="&#x1e84;" horiz-adv-x="886" 
d="M215 4l-189 672c-4 14 4 24 18 24h67c8 0 16 -7 18 -14l121 -459h4l163 472c2 6 9 11 17 11h18c8 0 15 -5 17 -11l165 -472h4l119 459c2 7 10 14 18 14h67c14 0 22 -10 18 -24l-189 -672c-2 -8 -10 -14 -18 -14h-16c-7 0 -15 5 -17 11l-176 497h-5l-173 -497
c-2 -6 -10 -11 -17 -11h-16c-8 0 -16 6 -18 14zM556 776c-35 0 -62 28 -62 63s27 62 62 62s63 -27 63 -62s-28 -63 -63 -63zM327 776c-35 0 -62 28 -62 63s27 62 62 62s63 -27 63 -62s-28 -63 -63 -63z" />
    <glyph glyph-name="Wgrave" unicode="&#x1e80;" horiz-adv-x="886" 
d="M215 4l-189 672c-4 14 4 24 18 24h67c8 0 16 -7 18 -14l121 -459h4l163 472c2 6 9 11 17 11h18c8 0 15 -5 17 -11l165 -472h4l119 459c2 7 10 14 18 14h67c14 0 22 -10 18 -24l-189 -672c-2 -8 -10 -14 -18 -14h-16c-7 0 -15 5 -17 11l-176 497h-5l-173 -497
c-2 -6 -10 -11 -17 -11h-16c-8 0 -16 6 -18 14zM510 774l-168 72c-8 4 -11 14 -6 24l23 44c5 9 20 7 26 3l157 -91c6 -3 10 -11 6 -19l-14 -28c-4 -9 -10 -11 -24 -5z" />
    <glyph glyph-name="Yacute" unicode="&#xdd;" horiz-adv-x="583" 
d="M291 438h2l180 253c3 4 9 9 16 9h75c16 0 24 -16 16 -29l-237 -333v-319c0 -10 -9 -19 -19 -19h-66c-11 0 -19 9 -19 19v318l-234 334c-8 13 0 29 16 29h74c8 0 13 -5 16 -9zM223 774c-13 -6 -20 -4 -24 5l-14 28c-4 8 1 16 6 19l157 91c6 4 21 6 26 -3l23 -44
c6 -10 2 -20 -6 -24z" />
    <glyph glyph-name="Ycircumflex" unicode="&#x176;" horiz-adv-x="583" 
d="M291 438h2l180 253c3 4 9 9 16 9h75c16 0 24 -16 16 -29l-237 -333v-319c0 -10 -9 -19 -19 -19h-66c-11 0 -19 9 -19 19v318l-234 334c-8 13 0 29 16 29h74c8 0 13 -5 16 -9zM192 769c-12 -7 -17 -5 -23 3l-20 27c-5 7 0 15 6 19l125 98c6 5 17 5 24 0l125 -98
c6 -4 11 -12 6 -19l-20 -27c-6 -8 -11 -11 -23 -3l-100 65z" />
    <glyph glyph-name="Ydieresis" unicode="&#x178;" horiz-adv-x="583" 
d="M291 438h2l180 253c3 4 9 9 16 9h75c16 0 24 -16 16 -29l-237 -333v-319c0 -10 -9 -19 -19 -19h-66c-11 0 -19 9 -19 19v318l-234 334c-8 13 0 29 16 29h74c8 0 13 -5 16 -9zM405 776c-35 0 -62 28 -62 63s27 62 62 62s63 -27 63 -62s-28 -63 -63 -63zM176 776
c-35 0 -62 28 -62 63s27 62 62 62s63 -27 63 -62s-28 -63 -63 -63z" />
    <glyph glyph-name="Ygrave" unicode="&#x1ef2;" horiz-adv-x="583" 
d="M291 438h2l180 253c3 4 9 9 16 9h75c16 0 24 -16 16 -29l-237 -333v-319c0 -10 -9 -19 -19 -19h-66c-11 0 -19 9 -19 19v318l-234 334c-8 13 0 29 16 29h74c8 0 13 -5 16 -9zM361 774l-168 72c-8 4 -11 14 -6 24l23 44c5 9 20 7 26 3l157 -91c6 -3 10 -11 6 -19l-14 -28
c-4 -9 -10 -11 -24 -5z" />
    <glyph glyph-name="Zacute" unicode="&#x179;" horiz-adv-x="533" 
d="M45 0c-10 0 -19 9 -19 19c0 13 0 18 8 32l322 549v4h-282c-10 0 -19 9 -19 19v58c0 10 9 19 19 19h411c10 0 19 -9 19 -19s0 -13 -7 -26l-324 -559v-1h292c11 0 19 -9 19 -19v-57c0 -10 -8 -19 -19 -19h-420zM211 774c-13 -6 -20 -4 -24 5l-14 28c-4 8 1 16 6 19l157 91
c6 4 21 6 26 -3l23 -44c6 -10 2 -20 -6 -24z" />
    <glyph glyph-name="Zcaron" unicode="&#x17d;" horiz-adv-x="533" 
d="M45 0c-10 0 -19 9 -19 19c0 13 0 18 8 32l322 549v4h-282c-10 0 -19 9 -19 19v58c0 10 9 19 19 19h411c10 0 19 -9 19 -19s0 -13 -7 -26l-324 -559v-1h292c11 0 19 -9 19 -19v-57c0 -10 -8 -19 -19 -19h-420zM263 768l-125 98c-6 4 -11 12 -6 19l20 27c6 8 11 10 23 3
l100 -65l100 65c12 8 17 5 23 -3l20 -27c5 -7 0 -15 -6 -19l-125 -98c-7 -5 -18 -5 -24 0z" />
    <glyph glyph-name="Zdotaccent" unicode="&#x17b;" horiz-adv-x="533" 
d="M45 0c-10 0 -19 9 -19 19c0 13 0 18 8 32l322 549v4h-282c-10 0 -19 9 -19 19v58c0 10 9 19 19 19h411c10 0 19 -9 19 -19s0 -13 -7 -26l-324 -559v-1h292c11 0 19 -9 19 -19v-57c0 -10 -8 -19 -19 -19h-420zM276 785c-37 0 -66 30 -66 67c0 38 29 68 66 68
c38 0 68 -30 68 -68c0 -37 -30 -67 -68 -67z" />
    <glyph glyph-name="agrave" unicode="&#xe0;" horiz-adv-x="477" 
d="M35 143c0 85 66 149 185 149c48 0 93 -14 93 -14c2 73 -16 106 -74 106c-53 0 -105 -15 -129 -22c-14 -3 -23 6 -26 19l-9 38c-3 16 4 23 15 27c8 3 74 26 159 26c148 0 162 -89 162 -204v-246c0 -12 -11 -22 -22 -22h-33c-9 0 -14 4 -19 16l-11 31
c-25 -24 -71 -58 -142 -58c-87 0 -149 58 -149 154zM133 144c0 -41 24 -73 72 -73c46 0 93 33 107 56v77c-6 4 -42 16 -84 16c-54 0 -95 -28 -95 -76zM318 543l-168 72c-8 4 -11 14 -6 24l23 44c5 9 20 7 26 3l157 -91c6 -3 10 -11 6 -19l-14 -29c-4 -8 -10 -11 -24 -4z" />
    <glyph glyph-name="aacute" unicode="&#xe1;" horiz-adv-x="477" 
d="M35 143c0 85 66 149 185 149c48 0 93 -14 93 -14c2 73 -16 106 -74 106c-53 0 -105 -15 -129 -22c-14 -3 -23 6 -26 19l-9 38c-3 16 4 23 15 27c8 3 74 26 159 26c148 0 162 -89 162 -204v-246c0 -12 -11 -22 -22 -22h-33c-9 0 -14 4 -19 16l-11 31
c-25 -24 -71 -58 -142 -58c-87 0 -149 58 -149 154zM133 144c0 -41 24 -73 72 -73c46 0 93 33 107 56v77c-6 4 -42 16 -84 16c-54 0 -95 -28 -95 -76zM174 543c-14 -7 -20 -4 -24 4l-14 29c-4 8 0 16 6 19l157 91c6 4 21 6 26 -3l23 -44c5 -10 2 -20 -6 -24z" />
    <glyph glyph-name="acircumflex" unicode="&#xe2;" horiz-adv-x="477" 
d="M35 143c0 85 66 149 185 149c48 0 93 -14 93 -14c2 73 -16 106 -74 106c-53 0 -105 -15 -129 -22c-14 -3 -23 6 -26 19l-9 38c-3 16 4 23 15 27c8 3 74 26 159 26c148 0 162 -89 162 -204v-246c0 -12 -11 -22 -22 -22h-33c-9 0 -14 4 -19 16l-11 31
c-25 -24 -71 -58 -142 -58c-87 0 -149 58 -149 154zM133 144c0 -41 24 -73 72 -73c46 0 93 33 107 56v77c-6 4 -42 16 -84 16c-54 0 -95 -28 -95 -76zM116 542l-20 27c-5 7 0 15 6 19l125 98c6 5 17 5 24 0l125 -98c6 -4 11 -12 6 -19l-20 -27c-6 -8 -11 -11 -23 -3l-100 65
l-100 -65c-12 -7 -17 -5 -23 3z" />
    <glyph glyph-name="atilde" unicode="&#xe3;" horiz-adv-x="477" 
d="M35 143c0 85 66 149 185 149c48 0 93 -14 93 -14c2 73 -16 106 -74 106c-53 0 -105 -15 -129 -22c-14 -3 -23 6 -26 19l-9 38c-3 16 4 23 15 27c8 3 74 26 159 26c148 0 162 -89 162 -204v-246c0 -12 -11 -22 -22 -22h-33c-9 0 -14 4 -19 16l-11 31
c-25 -24 -71 -58 -142 -58c-87 0 -149 58 -149 154zM133 144c0 -41 24 -73 72 -73c46 0 93 33 107 56v77c-6 4 -42 16 -84 16c-54 0 -95 -28 -95 -76zM123 568l-23 15c-10 6 -9 16 -6 23c9 18 39 84 98 84c58 0 77 -64 109 -64c23 0 31 25 41 40c6 10 13 16 25 9
c8 -6 20 -11 26 -19c5 -8 2 -16 -3 -27c-10 -22 -39 -75 -94 -75c-51 0 -78 65 -107 65c-24 0 -37 -28 -43 -41c-5 -11 -10 -17 -23 -10z" />
    <glyph glyph-name="adieresis" unicode="&#xe4;" horiz-adv-x="477" 
d="M35 143c0 85 66 149 185 149c48 0 93 -14 93 -14c2 73 -16 106 -74 106c-53 0 -105 -15 -129 -22c-14 -3 -23 6 -26 19l-9 38c-3 16 4 23 15 27c8 3 74 26 159 26c148 0 162 -89 162 -204v-246c0 -12 -11 -22 -22 -22h-33c-9 0 -14 4 -19 16l-11 31
c-25 -24 -71 -58 -142 -58c-87 0 -149 58 -149 154zM133 144c0 -41 24 -73 72 -73c46 0 93 33 107 56v77c-6 4 -42 16 -84 16c-54 0 -95 -28 -95 -76zM343 561c-35 0 -62 27 -62 62c0 36 27 63 62 63c36 0 63 -27 63 -63c0 -35 -27 -62 -63 -62zM146 561
c-35 0 -62 27 -62 62c0 36 27 63 62 63c36 0 63 -27 63 -63c0 -35 -27 -62 -63 -62z" />
    <glyph glyph-name="amacron" unicode="&#x101;" horiz-adv-x="477" 
d="M35 143c0 85 66 149 185 149c48 0 93 -14 93 -14c2 73 -16 106 -74 106c-53 0 -105 -15 -129 -22c-14 -3 -23 6 -26 19l-9 38c-3 16 4 23 15 27c8 3 74 26 159 26c148 0 162 -89 162 -204v-246c0 -12 -11 -22 -22 -22h-33c-9 0 -14 4 -19 16l-11 31
c-25 -24 -71 -58 -142 -58c-87 0 -149 58 -149 154zM133 144c0 -41 24 -73 72 -73c46 0 93 33 107 56v77c-6 4 -42 16 -84 16c-54 0 -95 -28 -95 -76zM114 576c-11 0 -19 8 -19 18v28c0 11 8 19 19 19h256c11 0 19 -8 19 -19v-28c0 -10 -8 -18 -19 -18h-256z" />
    <glyph glyph-name="abreve" unicode="&#x103;" horiz-adv-x="477" 
d="M35 143c0 85 66 149 185 149c48 0 93 -14 93 -14c2 73 -16 106 -74 106c-53 0 -105 -15 -129 -22c-14 -3 -23 6 -26 19l-9 38c-3 16 4 23 15 27c8 3 74 26 159 26c148 0 162 -89 162 -204v-246c0 -12 -11 -22 -22 -22h-33c-9 0 -14 4 -19 16l-11 31
c-25 -24 -71 -58 -142 -58c-87 0 -149 58 -149 154zM133 144c0 -41 24 -73 72 -73c46 0 93 33 107 56v77c-6 4 -42 16 -84 16c-54 0 -95 -28 -95 -76zM243 529c-72 0 -128 50 -138 116c-2 12 4 21 16 21h29c10 0 16 -7 18 -15c11 -35 38 -59 75 -59c33 0 62 27 72 59
c3 9 10 15 18 15h31c12 0 18 -9 16 -21c-11 -66 -67 -116 -137 -116z" />
    <glyph glyph-name="aring" unicode="&#xe5;" horiz-adv-x="477" 
d="M35 143c0 85 66 149 185 149c48 0 93 -14 93 -14c2 73 -16 106 -74 106c-53 0 -105 -15 -129 -22c-14 -3 -23 6 -26 19l-9 38c-3 16 4 23 15 27c8 3 74 26 159 26c148 0 162 -89 162 -204v-246c0 -12 -11 -22 -22 -22h-33c-9 0 -14 4 -19 16l-11 31
c-25 -24 -71 -58 -142 -58c-87 0 -149 58 -149 154zM133 144c0 -41 24 -73 72 -73c46 0 93 33 107 56v77c-6 4 -42 16 -84 16c-54 0 -95 -28 -95 -76zM242 508c-62 0 -111 49 -111 111s49 111 111 111c61 0 111 -49 111 -111s-50 -111 -111 -111zM242 563c29 0 53 27 53 56
s-24 53 -53 53c-33 0 -56 -24 -56 -53s23 -56 56 -56z" />
    <glyph glyph-name="aringacute" unicode="&#x1fb;" horiz-adv-x="477" 
d="M242 503c-62 0 -111 39 -111 101s49 101 111 101c61 0 111 -39 111 -101s-50 -101 -111 -101zM242 558c29 0 53 17 53 46s-24 43 -53 43c-33 0 -56 -14 -56 -43s23 -46 56 -46zM149 722l-13 29c-4 8 -1 16 5 19l157 71c6 4 24 6 28 -3l21 -44c5 -10 3 -21 -6 -24
l-168 -53c-15 -5 -20 -3 -24 5zM35 143c0 85 66 149 185 149c48 0 93 -14 93 -14c2 73 -16 106 -74 106c-53 0 -105 -15 -129 -22c-14 -3 -23 6 -26 19l-9 38c-3 16 4 23 15 27c8 3 74 26 159 26c148 0 162 -89 162 -204v-246c0 -12 -11 -22 -22 -22h-33c-9 0 -14 4 -19 16
l-11 31c-25 -24 -71 -58 -142 -58c-87 0 -149 58 -149 154zM133 144c0 -41 24 -73 72 -73c46 0 93 33 107 56v77c-6 4 -42 16 -84 16c-54 0 -95 -28 -95 -76z" />
    <glyph glyph-name="aogonek" unicode="&#x105;" horiz-adv-x="477" 
d="M35 143c0 85 66 149 185 149c48 0 93 -14 93 -14c2 73 -16 106 -74 106c-53 0 -105 -15 -129 -22c-14 -3 -23 6 -26 19l-9 38c-3 16 4 23 15 27c8 3 74 26 159 26c148 0 162 -89 162 -204v-242c0 -15 -7 -21 -15 -25c-36 -18 -99 -71 -99 -126c0 -31 16 -46 43 -46
c28 0 54 20 62 27c8 8 18 4 18 -6l1 -44c0 -11 -2 -21 -14 -29c-15 -9 -49 -23 -87 -23c-68 0 -103 45 -103 103c0 76 76 134 120 157l-11 33c-25 -24 -71 -58 -142 -58c-87 0 -149 58 -149 154zM133 144c0 -41 24 -73 72 -73c46 0 93 33 107 56v77c-6 4 -42 16 -84 16
c-54 0 -95 -28 -95 -76z" />
    <glyph glyph-name="ae" unicode="&#xe6;" horiz-adv-x="779" 
d="M35 144c0 83 69 148 175 148c54 0 97 -6 97 -6c-1 72 -14 98 -67 98c-58 0 -105 -16 -130 -22c-11 -3 -22 4 -25 15l-10 43c-3 14 4 23 18 27c0 0 68 25 157 25c77 0 115 -20 136 -55c37 33 84 55 140 55c117 0 218 -86 218 -213c0 -22 -2 -51 -26 -51h-316
c3 -63 59 -126 139 -126c42 0 86 23 110 38c14 9 20 10 28 0c11 -15 20 -29 29 -43c7 -11 11 -19 -3 -31c-34 -30 -93 -57 -171 -57c-74 0 -137 26 -178 78c-25 -33 -86 -78 -166 -78c-99 0 -155 60 -155 155zM405 282h238c-2 56 -46 103 -114 103c-73 0 -117 -45 -124 -103
zM133 144c0 -41 24 -69 72 -69c46 0 93 29 107 52v77c-6 4 -42 16 -84 16c-54 0 -95 -28 -95 -76z" />
    <glyph glyph-name="aeacute" unicode="&#x1fd;" horiz-adv-x="779" 
d="M35 144c0 83 69 148 175 148c54 0 97 -6 97 -6c-1 72 -14 98 -67 98c-58 0 -105 -16 -130 -22c-11 -3 -22 4 -25 15l-10 43c-3 14 4 23 18 27c0 0 68 25 157 25c77 0 115 -20 136 -55c37 33 84 55 140 55c117 0 218 -86 218 -213c0 -22 -2 -51 -26 -51h-316
c3 -63 59 -126 139 -126c42 0 86 23 110 38c14 9 20 10 28 0c11 -15 20 -29 29 -43c7 -11 11 -19 -3 -31c-34 -30 -93 -57 -171 -57c-74 0 -137 26 -178 78c-25 -33 -86 -78 -166 -78c-99 0 -155 60 -155 155zM405 282h238c-2 56 -46 103 -114 103c-73 0 -117 -45 -124 -103
zM133 144c0 -41 24 -69 72 -69c46 0 93 29 107 52v77c-6 4 -42 16 -84 16c-54 0 -95 -28 -95 -76zM377 543c-14 -7 -20 -4 -24 4l-14 29c-4 8 0 16 6 19l157 91c6 4 21 6 26 -3l23 -44c5 -10 2 -20 -6 -24z" />
    <glyph glyph-name="cacute" unicode="&#x107;" horiz-adv-x="492" 
d="M41 230c0 136 109 242 237 242c72 0 125 -27 168 -80c9 -11 6 -24 -4 -33l-36 -33c-13 -12 -22 -3 -30 5c-21 23 -58 46 -95 46c-79 0 -140 -64 -140 -146c0 -83 60 -147 137 -147c60 0 84 34 109 57c10 10 21 10 31 2l31 -25c11 -10 16 -21 8 -33
c-38 -57 -100 -96 -180 -96c-129 0 -236 102 -236 241zM205 543c-14 -7 -20 -4 -24 4l-14 29c-4 8 0 16 6 19l157 91c6 4 21 6 26 -3l23 -44c5 -10 2 -20 -6 -24z" />
    <glyph glyph-name="ccircumflex" unicode="&#x109;" horiz-adv-x="492" 
d="M41 230c0 136 109 242 237 242c72 0 125 -27 168 -80c9 -11 6 -24 -4 -33l-36 -33c-13 -12 -22 -3 -30 5c-21 23 -58 46 -95 46c-79 0 -140 -64 -140 -146c0 -83 60 -147 137 -147c60 0 84 34 109 57c10 10 21 10 31 2l31 -25c11 -10 16 -21 8 -33
c-38 -57 -100 -96 -180 -96c-129 0 -236 102 -236 241zM161 542l-20 27c-5 7 0 15 6 19l125 98c6 5 17 5 24 0l125 -98c6 -4 11 -12 6 -19l-20 -27c-6 -8 -11 -11 -23 -3l-100 65l-100 -65c-12 -7 -17 -5 -23 3z" />
    <glyph glyph-name="ccaron" unicode="&#x10d;" horiz-adv-x="492" 
d="M41 230c0 136 109 242 237 242c72 0 125 -27 168 -80c9 -11 6 -24 -4 -33l-36 -33c-13 -12 -22 -3 -30 5c-21 23 -58 46 -95 46c-79 0 -140 -64 -140 -146c0 -83 60 -147 137 -147c60 0 84 34 109 57c10 10 21 10 31 2l31 -25c11 -10 16 -21 8 -33
c-38 -57 -100 -96 -180 -96c-129 0 -236 102 -236 241zM271 535l-125 98c-6 4 -11 12 -6 19l20 27c6 8 11 10 23 3l100 -65l100 65c12 8 17 5 23 -3l20 -27c5 -7 0 -15 -6 -19l-125 -98c-7 -5 -18 -5 -24 0z" />
    <glyph glyph-name="cdotaccent" unicode="&#x10b;" horiz-adv-x="492" 
d="M41 230c0 136 109 242 237 242c72 0 125 -27 168 -80c9 -11 6 -24 -4 -33l-36 -33c-13 -12 -22 -3 -30 5c-21 23 -58 46 -95 46c-79 0 -140 -64 -140 -146c0 -83 60 -147 137 -147c60 0 84 34 109 57c10 10 21 10 31 2l31 -25c11 -10 16 -21 8 -33
c-38 -57 -100 -96 -180 -96c-129 0 -236 102 -236 241zM283 561c-37 0 -66 30 -66 67c0 38 29 68 66 68c38 0 68 -30 68 -68c0 -37 -30 -67 -68 -67z" />
    <glyph glyph-name="ccedilla" unicode="&#xe7;" horiz-adv-x="492" 
d="M41 230c0 136 109 242 237 242c72 0 125 -27 168 -80c9 -11 6 -24 -4 -33l-36 -33c-13 -12 -22 -3 -30 5c-21 23 -58 46 -95 46c-79 0 -140 -64 -140 -146c0 -83 60 -147 137 -147c60 0 84 34 109 57c10 10 21 10 31 2l31 -25c11 -10 16 -21 8 -33
c-34 -52 -88 -88 -157 -95l-35 -54c6 2 13 2 19 2c44 0 90 -23 90 -82c0 -68 -57 -100 -119 -100c-38 0 -66 11 -83 26c-7 7 -5 15 0 26l9 18c6 13 14 15 24 7c8 -7 25 -17 46 -17c30 0 50 10 50 37s-21 33 -49 33c-18 0 -34 -7 -44 -10c-9 -4 -20 8 -16 17l50 99
c-113 16 -201 112 -201 238z" />
    <glyph glyph-name="dcaron" unicode="&#x10f;" horiz-adv-x="555" 
d="M42 231c0 135 95 241 223 241c59 0 106 -21 116 -24v230c0 11 11 22 22 22h57c12 0 22 -11 22 -22v-656c0 -12 -10 -22 -22 -22h-24c-11 0 -18 8 -21 20l-10 34s-60 -65 -152 -65c-122 0 -211 110 -211 242zM142 231c0 -78 51 -147 125 -147c71 0 110 55 115 68v198
s-46 27 -106 27c-76 0 -134 -67 -134 -146zM525 647c0 40 31 63 74 63c49 0 87 -30 87 -97c0 -60 -26 -103 -53 -132c-6 -6 -12 -6 -20 -1l-24 18c-8 6 -7 14 -1 20c17 15 30 42 30 67c0 7 -1 13 -3 17c-2 -2 -15 -9 -32 -9c-35 0 -58 24 -58 54z" />
    <glyph glyph-name="dcroat" unicode="&#x111;" horiz-adv-x="552" 
d="M42 231c0 135 95 241 223 241c59 0 106 -21 116 -24v86h-137c-11 0 -19 8 -19 18v11c0 10 8 19 19 19h137v96c0 11 11 22 22 22h57c12 0 22 -11 22 -22v-96h26c10 0 18 -9 18 -19v-10c0 -10 -8 -19 -18 -19h-26v-512c0 -12 -10 -22 -22 -22h-24c-11 0 -18 8 -21 20
l-10 34s-60 -65 -152 -65c-122 0 -211 110 -211 242zM142 231c0 -78 51 -147 125 -147c71 0 110 55 115 68v198s-46 27 -106 27c-76 0 -134 -67 -134 -146z" />
    <glyph glyph-name="eth" unicode="&#xf0;" horiz-adv-x="565" 
d="M42 226c0 142 106 223 215 223c69 0 129 -33 137 -38c-17 64 -68 117 -119 156l-92 -52c-9 -5 -20 -2 -26 6l-5 10c-5 9 -3 21 6 26l72 41c-34 21 -65 35 -81 41c-20 6 -24 17 -19 29l18 43c4 11 13 16 25 12c34 -13 87 -37 141 -76l73 43c10 5 22 1 27 -8l6 -9
c5 -9 2 -21 -7 -26l-55 -32l-1 -1c83 -71 157 -179 157 -336c0 -159 -78 -288 -243 -288c-124 0 -229 106 -229 236zM136 225c0 -78 60 -143 136 -143c113 0 151 118 143 204c-7 19 -60 79 -142 79c-76 0 -137 -63 -137 -140z" />
    <glyph glyph-name="egrave" unicode="&#xe8;" horiz-adv-x="518" 
d="M42 231c0 130 91 241 230 241c120 0 211 -89 211 -212c0 -8 -1 -24 -2 -32c-1 -12 -11 -20 -21 -20h-319c1 -62 57 -126 138 -126c53 0 85 19 113 39c10 7 19 10 27 -2l27 -42c8 -10 12 -19 -2 -31c-33 -29 -94 -57 -171 -57c-140 0 -231 110 -231 242zM146 282h238
c-2 56 -46 105 -114 105c-73 0 -117 -47 -124 -105zM337 543l-168 72c-8 4 -11 14 -6 24l23 44c5 9 20 7 26 3l157 -91c6 -3 10 -11 6 -19l-14 -29c-4 -8 -10 -11 -24 -4z" />
    <glyph glyph-name="eacute" unicode="&#xe9;" horiz-adv-x="518" 
d="M42 231c0 130 91 241 230 241c120 0 211 -89 211 -212c0 -8 -1 -24 -2 -32c-1 -12 -11 -20 -21 -20h-319c1 -62 57 -126 138 -126c53 0 85 19 113 39c10 7 19 10 27 -2l27 -42c8 -10 12 -19 -2 -31c-33 -29 -94 -57 -171 -57c-140 0 -231 110 -231 242zM146 282h238
c-2 56 -46 105 -114 105c-73 0 -117 -47 -124 -105zM200 543c-14 -7 -20 -4 -24 4l-14 29c-4 8 0 16 6 19l157 91c6 4 21 6 26 -3l23 -44c5 -10 2 -20 -6 -24z" />
    <glyph glyph-name="ecircumflex" unicode="&#xea;" horiz-adv-x="518" 
d="M42 231c0 130 91 241 230 241c120 0 211 -89 211 -212c0 -8 -1 -24 -2 -32c-1 -12 -11 -20 -21 -20h-319c1 -62 57 -126 138 -126c53 0 85 19 113 39c10 7 19 10 27 -2l27 -42c8 -10 12 -19 -2 -31c-33 -29 -94 -57 -171 -57c-140 0 -231 110 -231 242zM146 282h238
c-2 56 -46 105 -114 105c-73 0 -117 -47 -124 -105zM150 542l-20 27c-5 7 0 15 6 19l125 98c6 5 17 5 24 0l125 -98c6 -4 11 -12 6 -19l-20 -27c-6 -8 -11 -11 -23 -3l-100 65l-100 -65c-12 -7 -17 -5 -23 3z" />
    <glyph glyph-name="ecaron" unicode="&#x11b;" horiz-adv-x="518" 
d="M42 231c0 130 91 241 230 241c120 0 211 -89 211 -212c0 -8 -1 -24 -2 -32c-1 -12 -11 -20 -21 -20h-319c1 -62 57 -126 138 -126c53 0 85 19 113 39c10 7 19 10 27 -2l27 -42c8 -10 12 -19 -2 -31c-33 -29 -94 -57 -171 -57c-140 0 -231 110 -231 242zM146 282h238
c-2 56 -46 105 -114 105c-73 0 -117 -47 -124 -105zM260 535l-125 98c-6 4 -11 12 -6 19l20 27c6 8 11 10 23 3l100 -65l100 65c12 8 17 5 23 -3l20 -27c5 -7 0 -15 -6 -19l-125 -98c-7 -5 -18 -5 -24 0z" />
    <glyph glyph-name="edieresis" unicode="&#xeb;" horiz-adv-x="518" 
d="M42 231c0 130 91 241 230 241c120 0 211 -89 211 -212c0 -8 -1 -24 -2 -32c-1 -12 -11 -20 -21 -20h-319c1 -62 57 -126 138 -126c53 0 85 19 113 39c10 7 19 10 27 -2l27 -42c8 -10 12 -19 -2 -31c-33 -29 -94 -57 -171 -57c-140 0 -231 110 -231 242zM146 282h238
c-2 56 -46 105 -114 105c-73 0 -117 -47 -124 -105zM368 561c-35 0 -62 27 -62 62c0 36 27 63 62 63c36 0 63 -27 63 -63c0 -35 -27 -62 -63 -62zM171 561c-35 0 -62 27 -62 62c0 36 27 63 62 63c36 0 63 -27 63 -63c0 -35 -27 -62 -63 -62z" />
    <glyph glyph-name="emacron" unicode="&#x113;" horiz-adv-x="518" 
d="M42 231c0 130 91 241 230 241c120 0 211 -89 211 -212c0 -8 -1 -24 -2 -32c-1 -12 -11 -20 -21 -20h-319c1 -62 57 -126 138 -126c53 0 85 19 113 39c10 7 19 10 27 -2l27 -42c8 -10 12 -19 -2 -31c-33 -29 -94 -57 -171 -57c-140 0 -231 110 -231 242zM146 282h238
c-2 56 -46 105 -114 105c-73 0 -117 -47 -124 -105zM145 576c-11 0 -19 8 -19 18v28c0 11 8 19 19 19h256c11 0 19 -8 19 -19v-28c0 -10 -8 -18 -19 -18h-256z" />
    <glyph glyph-name="ebreve" unicode="&#x115;" horiz-adv-x="518" 
d="M42 231c0 130 91 241 230 241c120 0 211 -89 211 -212c0 -8 -1 -24 -2 -32c-1 -12 -11 -20 -21 -20h-319c1 -62 57 -126 138 -126c53 0 85 19 113 39c10 7 19 10 27 -2l27 -42c8 -10 12 -19 -2 -31c-33 -29 -94 -57 -171 -57c-140 0 -231 110 -231 242zM146 282h238
c-2 56 -46 105 -114 105c-73 0 -117 -47 -124 -105zM276 529c-72 0 -128 50 -138 116c-2 12 4 21 16 21h29c10 0 16 -7 18 -15c11 -35 38 -59 75 -59c33 0 62 27 72 59c3 9 10 15 18 15h31c12 0 18 -9 16 -21c-11 -66 -67 -116 -137 -116z" />
    <glyph glyph-name="edotaccent" unicode="&#x117;" horiz-adv-x="518" 
d="M42 231c0 130 91 241 230 241c120 0 211 -89 211 -212c0 -8 -1 -24 -2 -32c-1 -12 -11 -20 -21 -20h-319c1 -62 57 -126 138 -126c53 0 85 19 113 39c10 7 19 10 27 -2l27 -42c8 -10 12 -19 -2 -31c-33 -29 -94 -57 -171 -57c-140 0 -231 110 -231 242zM146 282h238
c-2 56 -46 105 -114 105c-73 0 -117 -47 -124 -105zM273 561c-37 0 -66 30 -66 67c0 38 29 68 66 68c38 0 68 -30 68 -68c0 -37 -30 -67 -68 -67z" />
    <glyph glyph-name="eogonek" unicode="&#x119;" horiz-adv-x="518" 
d="M42 231c0 130 91 241 230 241c120 0 211 -89 211 -212c0 -8 -1 -24 -2 -32c-1 -12 -11 -20 -21 -20h-319c1 -62 57 -126 138 -126c42 0 85 21 113 39c10 7 19 10 27 -2l27 -42c8 -10 12 -19 -2 -31c-22 -19 -54 -38 -96 -48c-35 -23 -94 -71 -94 -123
c0 -31 16 -46 43 -46c28 0 54 20 62 27c8 8 18 4 18 -6l1 -44c0 -11 -2 -21 -14 -29c-15 -9 -49 -23 -87 -23c-68 0 -103 45 -103 103c0 63 44 106 81 133c-130 9 -213 115 -213 241zM146 282h238c-2 56 -46 105 -114 105c-73 0 -117 -47 -124 -105z" />
    <glyph glyph-name="gcircumflex" unicode="&#x11d;" horiz-adv-x="554" 
d="M177 542l-20 27c-5 7 0 15 6 19l125 98c6 5 17 5 24 0l125 -98c6 -4 11 -12 6 -19l-20 -27c-6 -8 -11 -11 -23 -3l-100 65l-100 -65c-12 -7 -17 -5 -23 3zM142 231c0 -79 60 -147 135 -147c61 0 107 37 107 37v191c-9 17 -49 65 -111 65c-79 0 -131 -68 -131 -146z
M484 440v-443c0 -144 -93 -216 -214 -216c-77 0 -140 38 -160 58c-8 5 -9 19 -5 26l24 44c6 12 19 16 31 7c16 -13 55 -43 108 -43c61 0 115 30 115 124v25c-8 -5 -58 -33 -118 -33c-126 0 -223 107 -223 242c0 132 91 241 218 241c86 0 138 -47 146 -55l12 29
c3 9 6 16 17 16h27c12 0 22 -11 22 -22z" />
    <glyph glyph-name="gbreve" unicode="&#x11f;" horiz-adv-x="554" 
d="M300 529c-72 0 -128 50 -138 116c-2 12 4 21 16 21h29c10 0 16 -7 18 -15c11 -35 38 -59 75 -59c33 0 62 27 72 59c3 9 10 15 18 15h31c12 0 18 -9 16 -21c-11 -66 -67 -116 -137 -116zM142 231c0 -79 60 -147 135 -147c61 0 107 37 107 37v191c-9 17 -49 65 -111 65
c-79 0 -131 -68 -131 -146zM484 440v-443c0 -144 -93 -216 -214 -216c-77 0 -140 38 -160 58c-8 5 -9 19 -5 26l24 44c6 12 19 16 31 7c16 -13 55 -43 108 -43c61 0 115 30 115 124v25c-8 -5 -58 -33 -118 -33c-126 0 -223 107 -223 242c0 132 91 241 218 241
c86 0 138 -47 146 -55l12 29c3 9 6 16 17 16h27c12 0 22 -11 22 -22z" />
    <glyph glyph-name="gdotaccent" unicode="&#x121;" horiz-adv-x="554" 
d="M299 561c-37 0 -66 30 -66 67c0 38 29 68 66 68c38 0 68 -30 68 -68c0 -37 -30 -67 -68 -67zM142 231c0 -79 60 -147 135 -147c61 0 107 37 107 37v191c-9 17 -49 65 -111 65c-79 0 -131 -68 -131 -146zM484 440v-443c0 -144 -93 -216 -214 -216c-77 0 -140 38 -160 58
c-8 5 -9 19 -5 26l24 44c6 12 19 16 31 7c16 -13 55 -43 108 -43c61 0 115 30 115 124v25c-8 -5 -58 -33 -118 -33c-126 0 -223 107 -223 242c0 132 91 241 218 241c86 0 138 -47 146 -55l12 29c3 9 6 16 17 16h27c12 0 22 -11 22 -22z" />
    <glyph glyph-name="gcommaaccent" unicode="&#x123;" horiz-adv-x="554" 
d="M142 231c0 -79 60 -147 135 -147c61 0 107 37 107 37v191c-9 17 -49 65 -111 65c-79 0 -131 -68 -131 -146zM484 440v-443c0 -144 -93 -216 -214 -216c-77 0 -140 38 -160 58c-8 5 -9 19 -5 26l24 44c6 12 19 16 31 7c16 -13 55 -43 108 -43c61 0 115 30 115 124v25
c-8 -5 -58 -33 -118 -33c-126 0 -223 107 -223 242c0 132 91 241 218 241c86 0 138 -47 146 -55l12 29c3 9 6 16 17 16h27c12 0 22 -11 22 -22zM351 599c0 -40 -31 -63 -74 -63c-49 0 -87 30 -87 97c0 60 26 103 53 132c6 6 12 6 20 1l24 -18c8 -6 7 -14 1 -20
c-17 -15 -30 -42 -30 -67c0 -7 1 -13 3 -17c2 2 15 9 32 9c35 0 58 -24 58 -54z" />
    <glyph glyph-name="hcircumflex" unicode="&#x125;" horiz-adv-x="548" 
d="M70 22v656c0 11 10 22 22 22h56c11 0 22 -11 22 -22v-254c11 8 61 48 134 48c131 0 179 -92 179 -218v-232c0 -12 -11 -22 -22 -22h-56c-12 0 -22 10 -22 22v234c0 76 -32 121 -92 121c-71 0 -111 -47 -121 -67v-288c0 -13 -9 -22 -23 -22h-55c-12 0 -22 10 -22 22z
M-9 759l-20 27c-5 7 0 15 6 19l125 98c6 5 17 5 24 0l125 -98c6 -4 11 -12 6 -19l-20 -27c-6 -8 -11 -11 -23 -3l-100 65l-100 -65c-12 -7 -17 -5 -23 3z" />
    <glyph glyph-name="hbar" unicode="&#x127;" horiz-adv-x="568" 
d="M70 22v512h-26c-10 0 -18 9 -18 19v10c0 10 8 19 18 19h26v96c0 11 10 22 22 22h56c11 0 22 -11 22 -22v-96h138c11 0 19 -9 19 -19v-11c0 -10 -8 -18 -19 -18h-138v-110c11 8 71 48 144 48c131 0 189 -92 189 -218v-232c0 -12 -11 -22 -22 -22h-56c-12 0 -22 10 -22 22
v234c0 76 -42 121 -102 121c-71 0 -121 -47 -131 -67v-288c0 -13 -9 -22 -23 -22h-55c-12 0 -22 10 -22 22z" />
    <glyph glyph-name="dotlessi" unicode="&#x131;" horiz-adv-x="240" 
d="M70 22v418c0 11 10 22 22 22h56c11 0 22 -11 22 -22v-418c0 -12 -11 -22 -22 -22h-56c-12 0 -22 10 -22 22z" />
    <glyph glyph-name="igrave" unicode="&#xec;" horiz-adv-x="240" 
d="M70 22v418c0 11 10 22 22 22h56c11 0 22 -11 22 -22v-418c0 -12 -11 -22 -22 -22h-56c-12 0 -22 10 -22 22zM186 543l-168 72c-8 4 -11 14 -6 24l23 44c5 9 20 7 26 3l157 -91c6 -3 10 -11 6 -19l-14 -29c-4 -8 -10 -11 -24 -4z" />
    <glyph glyph-name="iacute" unicode="&#xed;" horiz-adv-x="240" 
d="M70 22v418c0 11 10 22 22 22h56c11 0 22 -11 22 -22v-418c0 -12 -11 -22 -22 -22h-56c-12 0 -22 10 -22 22zM64 543c-14 -7 -20 -4 -24 4l-14 29c-4 8 0 16 6 19l157 91c6 4 21 6 26 -3l23 -44c5 -10 2 -20 -6 -24z" />
    <glyph glyph-name="ibreve" unicode="&#x12d;" horiz-adv-x="240" 
d="M70 22v418c0 11 10 22 22 22h56c11 0 22 -11 22 -22v-418c0 -12 -11 -22 -22 -22h-56c-12 0 -22 10 -22 22zM125 529c-72 0 -128 50 -138 116c-2 12 4 21 16 21h29c10 0 16 -7 18 -15c11 -35 38 -59 75 -59c33 0 62 27 72 59c3 9 10 15 18 15h31c12 0 18 -9 16 -21
c-11 -66 -67 -116 -137 -116z" />
    <glyph glyph-name="icircumflex" unicode="&#xee;" horiz-adv-x="240" 
d="M70 22v418c0 11 10 22 22 22h56c11 0 22 -11 22 -22v-418c0 -12 -11 -22 -22 -22h-56c-12 0 -22 10 -22 22zM1 542l-20 27c-5 7 0 15 6 19l125 98c6 5 17 5 24 0l125 -98c6 -4 11 -12 6 -19l-20 -27c-6 -8 -11 -11 -23 -3l-100 65l-100 -65c-12 -7 -17 -5 -23 3z" />
    <glyph glyph-name="itilde" unicode="&#x129;" horiz-adv-x="240" 
d="M70 22v418c0 11 10 22 22 22h56c11 0 22 -11 22 -22v-418c0 -12 -11 -22 -22 -22h-56c-12 0 -22 10 -22 22zM0 568l-23 15c-10 6 -9 16 -6 23c9 18 39 84 98 84c58 0 77 -64 109 -64c23 0 31 25 41 40c6 10 13 16 25 9c8 -6 20 -11 26 -19c5 -8 2 -16 -3 -27
c-10 -22 -39 -75 -94 -75c-51 0 -78 65 -107 65c-24 0 -37 -28 -43 -41c-5 -11 -10 -17 -23 -10z" />
    <glyph glyph-name="idieresis" unicode="&#xef;" horiz-adv-x="240" 
d="M70 22v418c0 11 10 22 22 22h56c11 0 22 -11 22 -22v-418c0 -12 -11 -22 -22 -22h-56c-12 0 -22 10 -22 22zM223 561c-35 0 -62 27 -62 62c0 36 27 63 62 63c36 0 63 -27 63 -63c0 -35 -27 -62 -63 -62zM26 561c-35 0 -62 27 -62 62c0 36 27 63 62 63c36 0 63 -27 63 -63
c0 -35 -27 -62 -63 -62z" />
    <glyph glyph-name="imacron" unicode="&#x12b;" horiz-adv-x="240" 
d="M70 22v418c0 11 10 22 22 22h56c11 0 22 -11 22 -22v-418c0 -12 -11 -22 -22 -22h-56c-12 0 -22 10 -22 22zM-5 576c-11 0 -19 8 -19 18v28c0 11 8 19 19 19h256c11 0 19 -8 19 -19v-28c0 -10 -8 -18 -19 -18h-256z" />
    <glyph glyph-name="iogonek" unicode="&#x12f;" horiz-adv-x="240" 
d="M70 22v418c0 11 10 22 22 22h56c11 0 22 -11 22 -22v-414c0 -13 -7 -21 -15 -25c-36 -18 -99 -71 -99 -126c0 -31 16 -46 43 -46c28 0 54 20 62 27c8 8 18 4 18 -6l1 -44c0 -11 -2 -21 -14 -29c-15 -9 -49 -23 -87 -23c-68 0 -103 45 -103 103c0 75 64 122 102 148
c-5 4 -8 10 -8 17zM120 561c-37 0 -66 30 -66 67c0 38 29 68 66 68c38 0 68 -30 68 -68c0 -37 -30 -67 -68 -67z" />
    <glyph glyph-name="dotlessj" unicode="&#x237;" horiz-adv-x="240" 
d="M170 440v-482c0 -114 -53 -180 -116 -204c-14 -5 -28 -1 -35 12l-21 39c-8 14 -2 30 12 37c30 15 60 42 60 104v494c0 13 10 22 22 22h56c11 0 22 -9 22 -22z" />
    <glyph glyph-name="jcircumflex" unicode="&#x135;" horiz-adv-x="240" 
d="M170 440v-482c0 -114 -53 -180 -116 -204c-14 -5 -28 -1 -35 12l-21 39c-8 14 -2 30 12 37c30 15 60 42 60 104v494c0 13 10 22 22 22h56c11 0 22 -9 22 -22zM-4 542l-20 27c-5 7 0 15 6 19l125 98c6 5 17 5 24 0l125 -98c6 -4 11 -12 6 -19l-20 -27
c-6 -8 -11 -11 -23 -3l-100 65l-100 -65c-12 -7 -17 -5 -23 3z" />
    <glyph glyph-name="kcommaaccent" unicode="&#x137;" horiz-adv-x="497" 
d="M70 22v656c0 11 10 22 22 22h56c11 0 22 -11 22 -22v-391l178 161c8 7 17 14 29 14h73c20 0 23 -22 12 -32l-187 -176l196 -224c9 -11 7 -30 -13 -30h-82c-9 0 -17 4 -21 9l-185 215v-202c0 -12 -11 -22 -22 -22h-56c-12 0 -22 10 -22 22zM184 -126c0 40 31 63 74 63
c49 0 87 -30 87 -97c0 -60 -26 -103 -53 -132c-6 -6 -12 -6 -20 -1l-24 18c-8 6 -7 14 -1 20c17 15 30 42 30 67c0 7 -1 13 -3 17c-2 -2 -15 -9 -32 -9c-35 0 -58 24 -58 54z" />
    <glyph glyph-name="kgreenlandic" unicode="&#x138;" horiz-adv-x="527" 
d="M70 22v418c0 11 10 22 22 22h56c11 0 22 -11 22 -22v-188l205 196c9 7 18 14 30 14h69c19 0 24 -22 13 -32l-210 -204l228 -196c10 -10 7 -30 -13 -30h-86c-9 0 -17 4 -21 9l-215 180v-167c0 -12 -11 -22 -22 -22h-56c-12 0 -22 10 -22 22z" />
    <glyph glyph-name="lacute" unicode="&#x13a;" horiz-adv-x="246" 
d="M73 22v656c0 11 10 22 22 22h56c11 0 22 -11 22 -22v-656c0 -12 -11 -22 -22 -22h-56c-12 0 -22 10 -22 22zM63 760c-14 -7 -20 -4 -24 4l-14 29c-4 8 0 16 6 19l157 91c6 4 21 6 26 -3l23 -44c5 -10 2 -20 -6 -24z" />
    <glyph glyph-name="lcaron" unicode="&#x13e;" horiz-adv-x="246" 
d="M73 22v656c0 11 10 22 22 22h56c11 0 22 -11 22 -22v-656c0 -12 -11 -22 -22 -22h-56c-12 0 -22 10 -22 22zM216 647c0 40 31 63 74 63c49 0 87 -30 87 -97c0 -60 -26 -103 -53 -132c-6 -6 -12 -6 -20 -1l-24 18c-8 6 -7 14 -1 20c17 15 30 42 30 67c0 7 -1 13 -3 17
c-2 -2 -15 -9 -32 -9c-35 0 -58 24 -58 54z" />
    <glyph glyph-name="lcommaaccent" unicode="&#x13c;" horiz-adv-x="246" 
d="M73 22v656c0 11 10 22 22 22h56c11 0 22 -11 22 -22v-656c0 -12 -11 -22 -22 -22h-56c-12 0 -22 10 -22 22zM47 -130c0 40 31 63 74 63c49 0 87 -30 87 -97c0 -60 -26 -103 -53 -132c-6 -6 -12 -6 -20 -1l-24 18c-8 6 -7 14 -1 20c17 15 30 42 30 67c0 7 -1 13 -3 17
c-2 -2 -15 -9 -32 -9c-35 0 -58 24 -58 54z" />
    <glyph glyph-name="lslash" unicode="&#x142;" horiz-adv-x="283" 
d="M84 22v293l-2 -1l-38 -22c-8 -5 -20 -2 -25 7l-5 9c-5 8 -3 20 6 26l62 36l2 1v307c0 11 10 22 22 22h56c11 0 22 -11 22 -22v-249l3 2l71 41c10 5 21 1 26 -7l5 -10c5 -8 2 -19 -7 -25l-95 -55l-3 -2v-351c0 -12 -11 -22 -22 -22h-56c-12 0 -22 10 -22 22z" />
    <glyph glyph-name="ldot" unicode="&#x140;" horiz-adv-x="365" 
d="M73 22v656c0 11 10 22 22 22h56c11 0 22 -11 22 -22v-656c0 -12 -11 -22 -22 -22h-56c-12 0 -22 10 -22 22zM304 275c-37 0 -66 30 -66 67c0 38 29 68 66 68c38 0 68 -30 68 -68c0 -37 -30 -67 -68 -67z" />
    <glyph glyph-name="nacute" unicode="&#x144;" horiz-adv-x="548" 
d="M70 22v418c0 11 10 22 22 22h24c10 0 17 -5 19 -14l14 -40c10 12 63 64 155 64c141 0 179 -98 179 -218v-232c0 -12 -11 -22 -22 -22h-56c-12 0 -22 10 -22 22v236c0 75 -31 119 -91 119c-73 0 -115 -51 -122 -67v-288c0 -15 -8 -22 -27 -22h-51c-12 0 -22 10 -22 22z
M219 543c-14 -7 -20 -4 -24 4l-14 29c-4 8 0 16 6 19l157 91c6 4 21 6 26 -3l23 -44c5 -10 2 -20 -6 -24z" />
    <glyph glyph-name="ncaron" unicode="&#x148;" horiz-adv-x="548" 
d="M70 22v418c0 11 10 22 22 22h24c10 0 17 -5 19 -14l14 -40c10 12 63 64 155 64c141 0 179 -98 179 -218v-232c0 -12 -11 -22 -22 -22h-56c-12 0 -22 10 -22 22v236c0 75 -31 119 -91 119c-73 0 -115 -51 -122 -67v-288c0 -15 -8 -22 -27 -22h-51c-12 0 -22 10 -22 22z
M275 535l-125 98c-6 4 -11 12 -6 19l20 27c6 8 11 10 23 3l100 -65l100 65c12 8 17 5 23 -3l20 -27c5 -7 0 -15 -6 -19l-125 -98c-7 -5 -18 -5 -24 0z" />
    <glyph glyph-name="ntilde" unicode="&#xf1;" horiz-adv-x="548" 
d="M70 22v418c0 11 10 22 22 22h24c10 0 17 -5 19 -14l14 -40c10 12 63 64 155 64c141 0 179 -98 179 -218v-232c0 -12 -11 -22 -22 -22h-56c-12 0 -22 10 -22 22v236c0 75 -31 119 -91 119c-73 0 -115 -51 -122 -67v-288c0 -15 -8 -22 -27 -22h-51c-12 0 -22 10 -22 22z
M162 568l-23 15c-10 6 -9 16 -6 23c9 18 39 84 98 84c58 0 77 -64 109 -64c23 0 31 25 41 40c6 10 13 16 25 9c8 -6 20 -11 26 -19c5 -8 2 -16 -3 -27c-10 -22 -39 -75 -94 -75c-51 0 -78 65 -107 65c-24 0 -37 -28 -43 -41c-5 -11 -10 -17 -23 -10z" />
    <glyph glyph-name="ncommaaccent" unicode="&#x146;" horiz-adv-x="548" 
d="M70 22v418c0 11 10 22 22 22h24c10 0 17 -5 19 -14l14 -40c10 12 63 64 155 64c141 0 179 -98 179 -218v-232c0 -12 -11 -22 -22 -22h-56c-12 0 -22 10 -22 22v236c0 75 -31 119 -91 119c-73 0 -115 -51 -122 -67v-288c0 -15 -8 -22 -27 -22h-51c-12 0 -22 10 -22 22z
M208 -126c0 40 31 63 74 63c49 0 87 -30 87 -97c0 -60 -26 -103 -53 -132c-6 -6 -12 -6 -20 -1l-24 18c-8 6 -7 14 -1 20c17 15 30 42 30 67c0 7 -1 13 -3 17c-2 -2 -15 -9 -32 -9c-35 0 -58 24 -58 54z" />
    <glyph glyph-name="napostrophe" unicode="&#x149;" horiz-adv-x="548" 
d="M-93 647c0 40 31 63 74 63c49 0 87 -30 87 -97c0 -60 -26 -103 -53 -132c-6 -6 -12 -6 -20 -1l-24 18c-8 6 -7 14 -1 20c17 15 30 42 30 67c0 7 -1 13 -3 17c-2 -2 -15 -9 -32 -9c-35 0 -58 24 -58 54zM70 22v418c0 11 10 22 22 22h24c10 0 17 -5 19 -14l14 -40
c10 12 63 64 155 64c141 0 179 -98 179 -218v-232c0 -12 -11 -22 -22 -22h-56c-12 0 -22 10 -22 22v236c0 75 -31 119 -91 119c-73 0 -115 -51 -122 -67v-288c0 -15 -8 -22 -27 -22h-51c-12 0 -22 10 -22 22z" />
    <glyph glyph-name="ograve" unicode="&#xf2;" horiz-adv-x="553" 
d="M41 232c0 130 106 240 236 240c129 0 235 -110 235 -240c0 -132 -106 -243 -235 -243c-130 0 -236 111 -236 243zM139 232c0 -85 60 -148 138 -148c77 0 137 63 137 148c0 83 -60 145 -137 145c-78 0 -138 -62 -138 -145zM336 543l-168 72c-8 4 -11 14 -6 24l23 44
c5 9 20 7 26 3l157 -91c6 -3 10 -11 6 -19l-14 -29c-4 -8 -10 -11 -24 -4z" />
    <glyph glyph-name="oacute" unicode="&#xf3;" horiz-adv-x="553" 
d="M41 232c0 130 106 240 236 240c129 0 235 -110 235 -240c0 -132 -106 -243 -235 -243c-130 0 -236 111 -236 243zM139 232c0 -85 60 -148 138 -148c77 0 137 63 137 148c0 83 -60 145 -137 145c-78 0 -138 -62 -138 -145zM209 543c-14 -7 -20 -4 -24 4l-14 29
c-4 8 0 16 6 19l157 91c6 4 21 6 26 -3l23 -44c5 -10 2 -20 -6 -24z" />
    <glyph glyph-name="ocircumflex" unicode="&#xf4;" horiz-adv-x="553" 
d="M41 232c0 130 106 240 236 240c129 0 235 -110 235 -240c0 -132 -106 -243 -235 -243c-130 0 -236 111 -236 243zM139 232c0 -85 60 -148 138 -148c77 0 137 63 137 148c0 83 -60 145 -137 145c-78 0 -138 -62 -138 -145zM151 542l-20 27c-5 7 0 15 6 19l125 98
c6 5 17 5 24 0l125 -98c6 -4 11 -12 6 -19l-20 -27c-6 -8 -11 -11 -23 -3l-100 65l-100 -65c-12 -7 -17 -5 -23 3z" />
    <glyph glyph-name="otilde" unicode="&#xf5;" horiz-adv-x="553" 
d="M41 232c0 130 106 240 236 240c129 0 235 -110 235 -240c0 -132 -106 -243 -235 -243c-130 0 -236 111 -236 243zM139 232c0 -85 60 -148 138 -148c77 0 137 63 137 148c0 83 -60 145 -137 145c-78 0 -138 -62 -138 -145zM153 568l-23 15c-10 6 -9 16 -6 23
c9 18 39 84 98 84c58 0 77 -64 109 -64c23 0 31 25 41 40c6 10 13 16 25 9c8 -6 20 -11 26 -19c5 -8 2 -16 -3 -27c-10 -22 -39 -75 -94 -75c-51 0 -78 65 -107 65c-24 0 -37 -28 -43 -41c-5 -11 -10 -17 -23 -10z" />
    <glyph glyph-name="odieresis" unicode="&#xf6;" horiz-adv-x="553" 
d="M41 232c0 130 106 240 236 240c129 0 235 -110 235 -240c0 -132 -106 -243 -235 -243c-130 0 -236 111 -236 243zM139 232c0 -85 60 -148 138 -148c77 0 137 63 137 148c0 83 -60 145 -137 145c-78 0 -138 -62 -138 -145zM374 561c-35 0 -62 27 -62 62c0 36 27 63 62 63
c36 0 63 -27 63 -63c0 -35 -27 -62 -63 -62zM177 561c-35 0 -62 27 -62 62c0 36 27 63 62 63c36 0 63 -27 63 -63c0 -35 -27 -62 -63 -62z" />
    <glyph glyph-name="omacron" unicode="&#x14d;" horiz-adv-x="553" 
d="M41 232c0 130 106 240 236 240c129 0 235 -110 235 -240c0 -132 -106 -243 -235 -243c-130 0 -236 111 -236 243zM139 232c0 -85 60 -148 138 -148c77 0 137 63 137 148c0 83 -60 145 -137 145c-78 0 -138 -62 -138 -145zM149 576c-11 0 -19 8 -19 18v28c0 11 8 19 19 19
h256c11 0 19 -8 19 -19v-28c0 -10 -8 -18 -19 -18h-256z" />
    <glyph glyph-name="obreve" unicode="&#x14f;" horiz-adv-x="553" 
d="M41 232c0 130 106 240 236 240c129 0 235 -110 235 -240c0 -132 -106 -243 -235 -243c-130 0 -236 111 -236 243zM139 232c0 -85 60 -148 138 -148c77 0 137 63 137 148c0 83 -60 145 -137 145c-78 0 -138 -62 -138 -145zM277 529c-72 0 -128 50 -138 116
c-2 12 4 21 16 21h29c10 0 16 -7 18 -15c11 -35 38 -59 75 -59c33 0 62 27 72 59c3 9 10 15 18 15h31c12 0 18 -9 16 -21c-11 -66 -67 -116 -137 -116z" />
    <glyph glyph-name="ohungarumlaut" unicode="&#x151;" horiz-adv-x="553" 
d="M41 232c0 130 106 240 236 240c129 0 235 -110 235 -240c0 -132 -106 -243 -235 -243c-130 0 -236 111 -236 243zM139 232c0 -85 60 -148 138 -148c77 0 137 63 137 148c0 83 -60 145 -137 145c-78 0 -138 -62 -138 -145zM326 521c-16 0 -22 9 -19 19l44 141
c3 10 9 19 19 19h57c19 0 25 -13 18 -25l-78 -139c-4 -8 -11 -15 -18 -15h-23zM160 521c-15 0 -22 9 -19 19l44 141c3 10 9 19 19 19h57c19 0 25 -12 18 -25l-78 -139c-4 -8 -11 -15 -18 -15h-23z" />
    <glyph glyph-name="oslash" unicode="&#xf8;" horiz-adv-x="553" 
d="M41 232c0 130 106 240 236 240c55 0 107 -20 147 -54l27 27c9 9 22 9 30 0l9 -8c10 -9 10 -22 0 -31l-28 -28c31 -41 50 -92 50 -146c0 -132 -106 -243 -235 -243c-56 0 -107 20 -147 53l-21 -21c-7 -8 -22 -7 -31 1l-7 8c-9 8 -9 22 -1 30l22 22c-32 41 -51 94 -51 150z
M139 232c0 -31 7 -58 21 -81l197 199c-22 17 -50 27 -80 27c-78 0 -138 -62 -138 -145zM414 232c0 29 -8 55 -20 77l-197 -199c22 -17 50 -26 80 -26c77 0 137 63 137 148z" />
    <glyph glyph-name="oslashacute" unicode="&#x1ff;" horiz-adv-x="553" 
d="M41 232c0 130 106 240 236 240c55 0 107 -20 147 -54l27 27c9 9 22 9 30 0l9 -8c10 -9 10 -22 0 -31l-28 -28c31 -41 50 -92 50 -146c0 -132 -106 -243 -235 -243c-56 0 -107 20 -147 53l-21 -21c-7 -8 -22 -7 -31 1l-7 8c-9 8 -9 22 -1 30l22 22c-32 41 -51 94 -51 150z
M139 232c0 -31 7 -58 21 -81l197 199c-22 17 -50 27 -80 27c-78 0 -138 -62 -138 -145zM414 232c0 29 -8 55 -20 77l-197 -199c22 -17 50 -26 80 -26c77 0 137 63 137 148zM199 543c-14 -7 -20 -4 -24 4l-14 29c-4 8 0 16 6 19l157 91c6 4 21 6 26 -3l23 -44
c5 -10 2 -20 -6 -24z" />
    <glyph glyph-name="oe" unicode="&#x153;" horiz-adv-x="873" 
d="M501 282h238c-2 56 -46 105 -114 105c-73 0 -117 -47 -124 -105zM838 260c0 -8 -1 -24 -2 -32c-1 -12 -11 -20 -21 -20h-319c2 -63 58 -126 138 -126c42 0 85 21 113 39c10 7 19 10 27 -2l27 -42c8 -10 12 -19 -2 -31c-33 -29 -94 -57 -171 -57c-74 0 -138 33 -179 84
c-42 -51 -104 -84 -174 -84c-130 0 -234 112 -234 244c0 130 104 239 234 239c70 0 132 -33 174 -85c40 53 102 85 177 85c115 0 212 -85 212 -212zM137 232c0 -85 60 -148 138 -148c77 0 137 63 137 148c0 83 -60 145 -137 145c-78 0 -138 -62 -138 -145z" />
    <glyph glyph-name="racute" unicode="&#x155;" horiz-adv-x="386" 
d="M70 22v418c0 11 10 22 22 22h24c9 0 18 -7 20 -16l13 -42c8 12 56 68 140 68c44 0 99 -12 84 -43l-24 -50c-6 -13 -18 -16 -28 -11c-7 4 -28 9 -42 9c-68 0 -105 -54 -109 -62v-293c0 -20 -13 -22 -32 -22h-46c-12 0 -22 10 -22 22zM147 543c-14 -7 -20 -4 -24 4l-14 29
c-4 8 0 16 6 19l157 91c6 4 21 6 26 -3l23 -44c5 -10 2 -20 -6 -24z" />
    <glyph glyph-name="rcaron" unicode="&#x159;" horiz-adv-x="386" 
d="M70 22v418c0 11 10 22 22 22h24c9 0 18 -7 20 -16l13 -42c8 12 56 68 140 68c44 0 99 -12 84 -43l-24 -50c-6 -13 -18 -16 -28 -11c-7 4 -28 9 -42 9c-68 0 -105 -54 -109 -62v-293c0 -20 -13 -22 -32 -22h-46c-12 0 -22 10 -22 22zM179 535l-125 98c-6 4 -11 12 -6 19
l20 27c6 8 11 10 23 3l100 -65l100 65c12 8 17 5 23 -3l20 -27c5 -7 0 -15 -6 -19l-125 -98c-7 -5 -18 -5 -24 0z" />
    <glyph glyph-name="rcommaaccent" unicode="&#x157;" horiz-adv-x="386" 
d="M70 22v418c0 11 10 22 22 22h24c9 0 18 -7 20 -16l13 -42c8 12 56 68 140 68c44 0 99 -12 84 -43l-24 -50c-6 -13 -18 -16 -28 -11c-7 4 -28 9 -42 9c-68 0 -105 -54 -109 -62v-293c0 -20 -13 -22 -32 -22h-46c-12 0 -22 10 -22 22zM48 -126c0 40 31 63 74 63
c49 0 87 -30 87 -97c0 -60 -26 -103 -53 -132c-6 -6 -12 -6 -20 -1l-24 18c-8 6 -7 14 -1 20c17 15 30 42 30 67c0 7 -1 13 -3 17c-2 -2 -15 -9 -32 -9c-35 0 -58 24 -58 54z" />
    <glyph glyph-name="sacute" unicode="&#x15b;" horiz-adv-x="404" 
d="M203 -11c-73 0 -126 29 -152 47c-7 5 -13 14 -8 24l21 43c5 10 18 13 30 6c27 -15 60 -34 115 -34c39 0 61 19 61 45c0 31 -35 51 -99 80c-71 32 -125 70 -125 146c0 58 41 126 153 126c64 0 112 -19 135 -34c11 -8 16 -22 10 -34l-16 -32c-7 -14 -21 -13 -30 -9
c-32 14 -63 23 -99 23c-40 0 -59 -20 -59 -41c0 -30 33 -48 79 -68c85 -36 149 -67 149 -153c0 -72 -62 -135 -165 -135zM142 543c-14 -7 -20 -4 -24 4l-14 29c-4 8 0 16 6 19l157 91c6 4 21 6 26 -3l23 -44c5 -10 2 -20 -6 -24z" />
    <glyph glyph-name="scircumflex" unicode="&#x15d;" horiz-adv-x="404" 
d="M203 -11c-73 0 -126 29 -152 47c-7 5 -13 14 -8 24l21 43c5 10 18 13 30 6c27 -15 60 -34 115 -34c39 0 61 19 61 45c0 31 -35 51 -99 80c-71 32 -125 70 -125 146c0 58 41 126 153 126c64 0 112 -19 135 -34c11 -8 16 -22 10 -34l-16 -32c-7 -14 -21 -13 -30 -9
c-32 14 -63 23 -99 23c-40 0 -59 -20 -59 -41c0 -30 33 -48 79 -68c85 -36 149 -67 149 -153c0 -72 -62 -135 -165 -135zM80 542l-20 27c-5 7 0 15 6 19l125 98c6 5 17 5 24 0l125 -98c6 -4 11 -12 6 -19l-20 -27c-6 -8 -11 -11 -23 -3l-100 65l-100 -65
c-12 -7 -17 -5 -23 3z" />
    <glyph glyph-name="scaron" unicode="&#x161;" horiz-adv-x="404" 
d="M203 -11c-73 0 -126 29 -152 47c-7 5 -13 14 -8 24l21 43c5 10 18 13 30 6c27 -15 60 -34 115 -34c39 0 61 19 61 45c0 31 -35 51 -99 80c-71 32 -125 70 -125 146c0 58 41 126 153 126c64 0 112 -19 135 -34c11 -8 16 -22 10 -34l-16 -32c-7 -14 -21 -13 -30 -9
c-32 14 -63 23 -99 23c-40 0 -59 -20 -59 -41c0 -30 33 -48 79 -68c85 -36 149 -67 149 -153c0 -72 -62 -135 -165 -135zM189 535l-125 98c-6 4 -11 12 -6 19l20 27c6 8 11 10 23 3l100 -65l100 65c12 8 17 5 23 -3l20 -27c5 -7 0 -15 -6 -19l-125 -98c-7 -5 -18 -5 -24 0z
" />
    <glyph glyph-name="scedilla" unicode="&#x15f;" horiz-adv-x="404" 
d="M173 -10l5 1c-60 5 -104 29 -127 45c-7 5 -13 14 -8 24l21 43c5 10 18 13 30 6c27 -15 60 -34 115 -34c39 0 61 19 61 45c0 31 -35 51 -99 80c-71 32 -125 70 -125 146c0 58 41 126 153 126c64 0 112 -19 135 -34c11 -8 16 -22 10 -34l-16 -32c-7 -14 -21 -13 -30 -9
c-32 14 -63 23 -99 23c-40 0 -59 -20 -59 -41c0 -30 33 -48 79 -68c85 -36 149 -67 149 -153c0 -65 -51 -123 -136 -133l-35 -55c6 2 13 2 19 2c44 0 90 -23 90 -82c0 -68 -57 -100 -119 -100c-38 0 -66 11 -83 26c-7 7 -5 15 0 26l9 18c6 13 14 15 24 7c8 -7 25 -17 46 -17
c30 0 50 10 50 37s-21 33 -49 33c-18 0 -34 -7 -44 -10c-9 -4 -20 8 -16 17z" />
    <glyph glyph-name="scommaaccent" unicode="&#x219;" horiz-adv-x="404" 
d="M203 -11c-73 0 -126 29 -152 47c-7 5 -13 14 -8 24l21 43c5 10 18 13 30 6c27 -15 60 -34 115 -34c39 0 61 19 61 45c0 31 -35 51 -99 80c-71 32 -125 70 -125 146c0 58 41 126 153 126c64 0 112 -19 135 -34c11 -8 16 -22 10 -34l-16 -32c-7 -14 -21 -13 -30 -9
c-32 14 -63 23 -99 23c-40 0 -59 -20 -59 -41c0 -30 33 -48 79 -68c85 -36 149 -67 149 -153c0 -72 -62 -135 -165 -135zM126 -126c0 40 31 63 74 63c49 0 87 -30 87 -97c0 -60 -26 -103 -53 -132c-6 -6 -12 -6 -20 -1l-24 18c-8 6 -7 14 -1 20c17 15 30 42 30 67
c0 7 -1 13 -3 17c-2 -2 -15 -9 -32 -9c-35 0 -58 24 -58 54z" />
    <glyph glyph-name="germandbls" unicode="&#xdf;" horiz-adv-x="578" 
d="M70 21v391c0 200 78 298 231 298c99 0 191 -67 191 -179c0 -103 -81 -148 -81 -185c0 -35 128 -70 128 -182c0 -94 -62 -175 -184 -175c-22 0 -33 1 -48 3c-11 1 -17 9 -17 23v51c0 9 5 19 21 18c12 -2 24 -5 44 -5c48 0 85 26 85 77c0 72 -133 105 -133 178
c0 65 85 120 85 192c0 61 -47 89 -99 89c-76 0 -123 -58 -123 -204v-390c0 -11 -10 -21 -21 -21h-58c-11 0 -21 10 -21 21z" />
    <glyph glyph-name="tcaron" unicode="&#x165;" horiz-adv-x="380" 
d="M101 127v250h-53c-13 0 -22 11 -22 22v41c0 13 9 22 22 22h53v129c0 12 10 22 22 22h57c12 0 21 -10 21 -22v-129h122c12 0 22 -9 22 -22v-41c0 -11 -10 -22 -22 -22h-122v-246c0 -39 15 -47 37 -47c29 0 57 12 74 22c14 8 23 0 27 -10l18 -47c5 -12 0 -20 -11 -27
c-19 -12 -73 -33 -128 -33c-92 0 -117 56 -117 138zM314 647c0 40 31 63 74 63c49 0 87 -30 87 -97c0 -60 -26 -103 -53 -132c-6 -6 -12 -6 -20 -1l-24 18c-8 6 -7 14 -1 20c17 15 30 42 30 67c0 7 -1 13 -3 17c-2 -2 -15 -9 -32 -9c-35 0 -58 24 -58 54z" />
    <glyph glyph-name="tcommaaccent" unicode="&#x163;" horiz-adv-x="381" 
d="M102 127v250h-53c-13 0 -22 11 -22 22v41c0 13 9 22 22 22h53v128c0 12 10 22 22 22h57c12 0 21 -10 21 -22v-128h122c12 0 22 -9 22 -22v-41c0 -11 -10 -22 -22 -22h-122v-246c0 -39 15 -47 37 -47c29 0 57 12 74 22c14 8 23 0 27 -10l18 -47c5 -12 0 -20 -11 -27
c-16 -10 -54 -25 -97 -30l-36 -56c6 2 13 2 19 2c44 0 85 -23 85 -82c0 -68 -52 -100 -114 -100c-38 0 -66 11 -83 26c-7 7 -5 15 0 26l9 18c6 13 14 15 24 7c8 -7 25 -17 46 -17c30 0 50 15 50 42s-21 38 -49 38c-18 0 -29 -7 -39 -10c-9 -4 -20 8 -16 17l45 88
c-69 10 -89 63 -89 136z" />
    <glyph glyph-name="uni021B" unicode="&#x21b;" horiz-adv-x="380" 
d="M101 127v250h-53c-13 0 -22 11 -22 22v41c0 13 9 22 22 22h53v129c0 12 10 22 22 22h57c12 0 21 -10 21 -22v-129h122c12 0 22 -9 22 -22v-41c0 -11 -10 -22 -22 -22h-122v-246c0 -39 15 -47 37 -47c29 0 57 12 74 22c14 8 23 0 27 -10l18 -47c5 -12 0 -20 -11 -27
c-19 -12 -73 -33 -128 -33c-92 0 -117 56 -117 138zM126 -126c0 40 31 63 74 63c49 0 87 -30 87 -97c0 -60 -26 -103 -53 -132c-6 -6 -12 -6 -20 -1l-24 18c-8 6 -7 14 -1 20c17 15 30 42 30 67c0 7 -1 13 -3 17c-2 -2 -15 -9 -32 -9c-35 0 -58 24 -58 54z" />
    <glyph glyph-name="tbar" unicode="&#x167;" horiz-adv-x="382" 
d="M102 127v70h-46c-12 0 -21 11 -21 22v12c0 12 9 22 21 22h46v124h-53c-13 0 -22 11 -22 23v5v3v32v3c1 7 4 12 9 15l2 2c2 0 4 1 5 1c2 1 4 1 6 1h53v128c0 12 10 22 22 22h57c12 0 21 -10 21 -22v-128h122c3 0 6 -1 8 -2c2 0 3 -1 5 -2l3 -3c1 -1 2 -2 2 -3
c1 -1 2 -2 2 -4c1 -1 1 -2 1 -3c1 -2 1 -3 1 -5v-40c0 -12 -10 -23 -22 -23h-122v-124h105c13 0 22 -10 22 -22v-13c0 -11 -9 -21 -22 -21h-105v-65c0 -39 16 -47 38 -47c24 0 58 15 71 22c15 7 23 0 27 -10l20 -46c5 -12 1 -21 -11 -27c-12 -7 -73 -35 -128 -35
c-92 0 -117 56 -117 138z" />
    <glyph glyph-name="thorn" unicode="&#xfe;" horiz-adv-x="553" 
d="M171 21v-237c0 -11 -11 -22 -22 -22h-56c-13 0 -22 11 -22 22v894c0 11 9 22 22 22h56c11 0 22 -11 22 -22v-245c9 5 55 39 122 39c128 0 218 -110 218 -242c0 -137 -96 -241 -224 -241c-58 0 -107 27 -116 32zM171 118c6 -9 51 -33 105 -33c76 0 135 66 135 146
c0 77 -52 146 -131 146c-59 0 -100 -39 -109 -53v-206z" />
    <glyph glyph-name="ugrave" unicode="&#xf9;" horiz-adv-x="533" 
d="M65 201v239c0 11 11 22 22 22h56c12 0 22 -11 22 -22v-246c0 -76 31 -110 90 -110c67 0 104 55 108 76v280c0 19 9 22 26 22h51c12 0 23 -11 23 -22v-418c0 -12 -11 -22 -23 -22h-24c-12 0 -17 8 -21 19l-12 33c-10 -10 -52 -63 -146 -63c-138 0 -172 91 -172 212z
M340 544l-168 72c-8 4 -11 14 -6 24l23 44c5 9 20 7 26 3l157 -91c6 -3 10 -11 6 -19l-14 -29c-4 -8 -10 -11 -24 -4z" />
    <glyph glyph-name="uacute" unicode="&#xfa;" horiz-adv-x="533" 
d="M209 543c-14 -7 -20 -4 -24 4l-14 29c-4 8 0 16 6 19l157 91c6 4 21 6 26 -3l23 -44c5 -10 2 -20 -6 -24zM65 201v239c0 11 11 22 22 22h56c12 0 22 -11 22 -22v-246c0 -76 31 -110 90 -110c67 0 104 55 108 76v280c0 19 9 22 26 22h51c12 0 23 -11 23 -22v-418
c0 -12 -11 -22 -23 -22h-24c-12 0 -17 8 -21 19l-12 33c-10 -10 -52 -63 -146 -63c-138 0 -172 91 -172 212z" />
    <glyph glyph-name="ucircumflex" unicode="&#xfb;" horiz-adv-x="533" 
d="M152 542l-20 27c-5 7 0 15 6 19l125 98c6 5 17 5 24 0l125 -98c6 -4 11 -12 6 -19l-20 -27c-6 -8 -11 -11 -23 -3l-100 65l-100 -65c-12 -7 -17 -5 -23 3zM65 201v239c0 11 11 22 22 22h56c12 0 22 -11 22 -22v-246c0 -76 31 -110 90 -110c67 0 104 55 108 76v280
c0 19 9 22 26 22h51c12 0 23 -11 23 -22v-418c0 -12 -11 -22 -23 -22h-24c-12 0 -17 8 -21 19l-12 33c-10 -10 -52 -63 -146 -63c-138 0 -172 91 -172 212z" />
    <glyph glyph-name="utilde" unicode="&#x169;" horiz-adv-x="533" 
d="M148 568l-23 15c-10 6 -9 16 -6 23c9 18 39 84 98 84c58 0 77 -64 109 -64c23 0 31 25 41 40c6 10 13 16 25 9c8 -6 20 -11 26 -19c5 -8 2 -16 -3 -27c-10 -22 -39 -75 -94 -75c-51 0 -78 65 -107 65c-24 0 -37 -28 -43 -41c-5 -11 -10 -17 -23 -10zM65 201v239
c0 11 11 22 22 22h56c12 0 22 -11 22 -22v-246c0 -76 31 -110 90 -110c67 0 104 55 108 76v280c0 19 9 22 26 22h51c12 0 23 -11 23 -22v-418c0 -12 -11 -22 -23 -22h-24c-12 0 -17 8 -21 19l-12 33c-10 -10 -52 -63 -146 -63c-138 0 -172 91 -172 212z" />
    <glyph glyph-name="udieresis" unicode="&#xfc;" horiz-adv-x="533" 
d="M368 561c-35 0 -62 27 -62 62c0 36 27 63 62 63c36 0 63 -27 63 -63c0 -35 -27 -62 -63 -62zM171 561c-35 0 -62 27 -62 62c0 36 27 63 62 63c36 0 63 -27 63 -63c0 -35 -27 -62 -63 -62zM65 201v239c0 11 11 22 22 22h56c12 0 22 -11 22 -22v-246c0 -76 31 -110 90 -110
c67 0 104 55 108 76v280c0 19 9 22 26 22h51c12 0 23 -11 23 -22v-418c0 -12 -11 -22 -23 -22h-24c-12 0 -17 8 -21 19l-12 33c-10 -10 -52 -63 -146 -63c-138 0 -172 91 -172 212z" />
    <glyph glyph-name="umacron" unicode="&#x16b;" horiz-adv-x="533" 
d="M141 576c-11 0 -19 8 -19 18v28c0 11 8 19 19 19h256c11 0 19 -8 19 -19v-28c0 -10 -8 -18 -19 -18h-256zM65 201v239c0 11 11 22 22 22h56c12 0 22 -11 22 -22v-246c0 -76 31 -110 90 -110c67 0 104 55 108 76v280c0 19 9 22 26 22h51c12 0 23 -11 23 -22v-418
c0 -12 -11 -22 -23 -22h-24c-12 0 -17 8 -21 19l-12 33c-10 -10 -52 -63 -146 -63c-138 0 -172 91 -172 212z" />
    <glyph glyph-name="ubreve" unicode="&#x16d;" horiz-adv-x="533" 
d="M265 529c-72 0 -128 50 -138 116c-2 12 4 21 16 21h29c10 0 16 -7 18 -15c11 -35 38 -59 75 -59c33 0 62 27 72 59c3 9 10 15 18 15h31c12 0 18 -9 16 -21c-11 -66 -67 -116 -137 -116zM65 201v239c0 11 11 22 22 22h56c12 0 22 -11 22 -22v-246c0 -76 31 -110 90 -110
c67 0 104 55 108 76v280c0 19 9 22 26 22h51c12 0 23 -11 23 -22v-418c0 -12 -11 -22 -23 -22h-24c-12 0 -17 8 -21 19l-12 33c-10 -10 -52 -63 -146 -63c-138 0 -172 91 -172 212z" />
    <glyph glyph-name="uring" unicode="&#x16f;" horiz-adv-x="533" 
d="M268 508c-62 0 -111 49 -111 111s49 111 111 111c61 0 111 -49 111 -111s-50 -111 -111 -111zM268 563c29 0 53 27 53 56s-24 53 -53 53c-33 0 -56 -24 -56 -53s23 -56 56 -56zM65 201v239c0 11 11 22 22 22h56c12 0 22 -11 22 -22v-246c0 -76 31 -110 90 -110
c67 0 104 55 108 76v280c0 19 9 22 26 22h51c12 0 23 -11 23 -22v-418c0 -12 -11 -22 -23 -22h-24c-12 0 -17 8 -21 19l-12 33c-10 -10 -52 -63 -146 -63c-138 0 -172 91 -172 212z" />
    <glyph glyph-name="uhungarumlaut" unicode="&#x171;" horiz-adv-x="533" 
d="M316 521c-16 0 -22 9 -19 19l44 141c3 10 9 19 19 19h57c19 0 25 -13 18 -25l-78 -139c-4 -8 -11 -15 -18 -15h-23zM150 521c-15 0 -22 9 -19 19l44 141c3 10 9 19 19 19h57c19 0 25 -12 18 -25l-78 -139c-4 -8 -11 -15 -18 -15h-23zM65 201v239c0 11 11 22 22 22h56
c12 0 22 -11 22 -22v-246c0 -76 31 -110 90 -110c67 0 104 55 108 76v280c0 19 9 22 26 22h51c12 0 23 -11 23 -22v-418c0 -12 -11 -22 -23 -22h-24c-12 0 -17 8 -21 19l-12 33c-10 -10 -52 -63 -146 -63c-138 0 -172 91 -172 212z" />
    <glyph glyph-name="uogonek" unicode="&#x173;" horiz-adv-x="533" 
d="M65 207v233c0 11 11 22 22 22h56c12 0 22 -11 22 -22v-240c0 -76 31 -116 90 -116c67 0 104 55 108 76v280c0 19 9 22 26 22h51c12 0 23 -11 23 -22v-418c0 -8 -5 -15 -12 -19c-33 -20 -102 -72 -102 -128c0 -31 16 -46 43 -46c28 0 54 20 62 27c8 8 18 4 18 -6l1 -44
c0 -11 -2 -21 -14 -29c-15 -9 -49 -23 -87 -23c-68 0 -103 45 -103 103c0 76 82 136 126 162l-12 33c-10 -10 -52 -63 -146 -63c-138 0 -172 97 -172 218z" />
    <glyph glyph-name="wacute" unicode="&#x1e83;" horiz-adv-x="705" 
d="M167 1l-135 435c-7 14 0 26 16 26h60c8 0 18 -5 20 -14l76 -265h2l125 278c3 6 10 11 19 11h7c11 0 18 -5 20 -11l124 -279h2l74 266c6 14 23 14 35 14h42c16 0 25 -12 18 -26l-132 -435c-2 -7 -11 -12 -21 -12h-4c-10 0 -17 5 -20 11l-141 314h-2l-142 -314
c-2 -6 -8 -11 -18 -11h-6c-10 0 -17 5 -19 12zM287 543c-14 -7 -20 -4 -24 4l-14 29c-4 8 0 16 6 19l157 91c6 4 21 6 26 -3l23 -44c5 -10 2 -20 -6 -24z" />
    <glyph glyph-name="wcircumflex" unicode="&#x175;" horiz-adv-x="705" 
d="M167 1l-135 435c-7 14 0 26 16 26h60c8 0 18 -5 20 -14l76 -265h2l125 278c3 6 10 11 19 11h7c11 0 18 -5 20 -11l124 -279h2l74 266c6 14 23 14 35 14h42c16 0 25 -12 18 -26l-132 -435c-2 -7 -11 -12 -21 -12h-4c-10 0 -17 5 -20 11l-141 314h-2l-142 -314
c-2 -6 -8 -11 -18 -11h-6c-10 0 -17 5 -19 12zM233 542l-20 27c-5 7 0 15 6 19l125 98c6 5 17 5 24 0l125 -98c6 -4 11 -12 6 -19l-20 -27c-6 -8 -11 -11 -23 -3l-100 65l-100 -65c-12 -7 -17 -5 -23 3z" />
    <glyph glyph-name="wdieresis" unicode="&#x1e85;" horiz-adv-x="705" 
d="M167 1l-135 435c-7 14 0 26 16 26h60c8 0 18 -5 20 -14l76 -265h2l125 278c3 6 10 11 19 11h7c11 0 18 -5 20 -11l124 -279h2l74 266c6 14 23 14 35 14h42c16 0 25 -12 18 -26l-132 -435c-2 -7 -11 -12 -21 -12h-4c-10 0 -17 5 -20 11l-141 314h-2l-142 -314
c-2 -6 -8 -11 -18 -11h-6c-10 0 -17 5 -19 12zM453 561c-35 0 -62 27 -62 62c0 36 27 63 62 63c36 0 63 -27 63 -63c0 -35 -27 -62 -63 -62zM256 561c-35 0 -62 27 -62 62c0 36 27 63 62 63c36 0 63 -27 63 -63c0 -35 -27 -62 -63 -62z" />
    <glyph glyph-name="wgrave" unicode="&#x1e81;" horiz-adv-x="705" 
d="M167 1l-135 435c-7 14 0 26 16 26h60c8 0 18 -5 20 -14l76 -265h2l125 278c3 6 10 11 19 11h7c11 0 18 -5 20 -11l124 -279h2l74 266c6 14 23 14 35 14h42c16 0 25 -12 18 -26l-132 -435c-2 -7 -11 -12 -21 -12h-4c-10 0 -17 5 -20 11l-141 314h-2l-142 -314
c-2 -6 -8 -11 -18 -11h-6c-10 0 -17 5 -19 12zM424 543l-168 72c-8 4 -11 14 -6 24l23 44c5 9 20 7 26 3l157 -91c6 -3 10 -11 6 -19l-14 -29c-4 -8 -10 -11 -24 -4z" />
    <glyph glyph-name="yacute" unicode="&#xfd;" horiz-adv-x="497" 
d="M182 16l-159 416c-6 16 2 30 20 30h66c7 0 17 -5 20 -13l107 -317h2l130 317c4 11 13 13 24 13h62c19 0 27 -14 20 -30l-282 -656c-4 -7 -10 -14 -19 -14h-64c-17 0 -28 15 -20 31zM206 543c-14 -7 -20 -4 -24 4l-14 29c-4 8 0 16 6 19l157 91c6 4 21 6 26 -3l23 -44
c5 -10 2 -20 -6 -24z" />
    <glyph glyph-name="ycircumflex" unicode="&#x177;" horiz-adv-x="497" 
d="M182 16l-159 416c-6 16 2 30 20 30h66c7 0 17 -5 20 -13l107 -317h2l130 317c4 11 13 13 24 13h62c19 0 27 -14 20 -30l-282 -656c-4 -7 -10 -14 -19 -14h-64c-17 0 -28 15 -20 31zM133 542l-20 27c-5 7 0 15 6 19l125 98c6 5 17 5 24 0l125 -98c6 -4 11 -12 6 -19
l-20 -27c-6 -8 -11 -11 -23 -3l-100 65l-100 -65c-12 -7 -17 -5 -23 3z" />
    <glyph glyph-name="ydieresis" unicode="&#xff;" horiz-adv-x="497" 
d="M182 16l-159 416c-6 16 2 30 20 30h66c7 0 17 -5 20 -13l107 -317h2l130 317c4 11 13 13 24 13h62c19 0 27 -14 20 -30l-282 -656c-4 -7 -10 -14 -19 -14h-64c-17 0 -28 15 -20 31zM354 561c-35 0 -62 27 -62 62c0 36 27 63 62 63c36 0 63 -27 63 -63
c0 -35 -27 -62 -63 -62zM157 561c-35 0 -62 27 -62 62c0 36 27 63 62 63c36 0 63 -27 63 -63c0 -35 -27 -62 -63 -62z" />
    <glyph glyph-name="ygrave" unicode="&#x1ef3;" horiz-adv-x="497" 
d="M182 16l-159 416c-6 16 2 30 20 30h66c7 0 17 -5 20 -13l107 -317h2l130 317c4 11 13 13 24 13h62c19 0 27 -14 20 -30l-282 -656c-4 -7 -10 -14 -19 -14h-64c-17 0 -28 15 -20 31zM302 543l-168 72c-8 4 -11 14 -6 24l23 44c5 9 20 7 26 3l157 -91c6 -3 10 -11 6 -19
l-14 -29c-4 -8 -10 -11 -24 -4z" />
    <glyph glyph-name="zacute" unicode="&#x17a;" horiz-adv-x="414" 
d="M56 0c-12 0 -22 10 -22 22c0 9 0 12 8 26l195 319v2h-171c-11 0 -21 11 -21 22v49c0 13 10 22 21 22h298c13 0 23 -9 23 -20c0 -4 -1 -8 -3 -12l-202 -336v-3h159c13 0 22 -9 22 -22v-47c0 -12 -9 -22 -22 -22h-285zM152 543c-14 -7 -20 -4 -24 4l-14 29c-4 8 0 16 6 19
l157 91c6 4 21 6 26 -3l23 -44c5 -10 2 -20 -6 -24z" />
    <glyph glyph-name="zcaron" unicode="&#x17e;" horiz-adv-x="414" 
d="M56 0c-12 0 -22 10 -22 22c0 9 0 12 8 26l195 319v2h-171c-11 0 -21 11 -21 22v49c0 13 10 22 21 22h298c13 0 23 -9 23 -20c0 -4 -1 -8 -3 -12l-202 -336v-3h159c13 0 22 -9 22 -22v-47c0 -12 -9 -22 -22 -22h-285zM211 535l-125 98c-6 4 -11 12 -6 19l20 27
c6 8 11 10 23 3l100 -65l100 65c12 8 17 5 23 -3l20 -27c5 -7 0 -15 -6 -19l-125 -98c-7 -5 -18 -5 -24 0z" />
    <glyph glyph-name="zdotaccent" unicode="&#x17c;" horiz-adv-x="414" 
d="M56 0c-12 0 -22 10 -22 22c0 9 0 12 8 26l195 319v2h-171c-11 0 -21 11 -21 22v49c0 13 10 22 21 22h298c13 0 23 -9 23 -20c0 -4 -1 -8 -3 -12l-202 -336v-3h159c13 0 22 -9 22 -22v-47c0 -12 -9 -22 -22 -22h-285zM217 561c-37 0 -66 30 -66 67c0 38 29 68 66 68
c38 0 68 -30 68 -68c0 -37 -30 -67 -68 -67z" />
    <glyph glyph-name="IJ" unicode="&#x132;" horiz-adv-x="732" 
d="M91 19v662c0 10 9 19 19 19h66c10 0 19 -9 19 -19v-662c0 -10 -9 -19 -19 -19h-66c-10 0 -19 9 -19 19zM289 63c-5 8 -4 18 2 25l36 39c14 12 23 8 32 -2c15 -17 43 -43 82 -43c49 0 101 28 101 116v483c0 10 8 19 19 19h66c11 0 19 -9 19 -19v-482
c0 -139 -88 -209 -205 -209c-87 0 -135 52 -152 73z" />
    <glyph glyph-name="ij" unicode="&#x133;" horiz-adv-x="487" 
d="M70 22v418c0 11 10 22 22 22h56c11 0 22 -11 22 -22v-418c0 -12 -11 -22 -22 -22h-56c-12 0 -22 10 -22 22zM120 561c-37 0 -66 30 -66 67c0 38 29 68 66 68c38 0 68 -30 68 -68c0 -37 -30 -67 -68 -67zM417 440v-482c0 -114 -53 -180 -116 -204c-14 -5 -28 -1 -35 12
l-21 39c-8 14 -2 30 12 37c30 15 60 42 60 104v494c0 13 10 22 22 22h56c11 0 22 -9 22 -22zM367 561c-37 0 -66 30 -66 67c0 38 29 68 66 68c38 0 68 -30 68 -68c0 -37 -30 -67 -68 -67z" />
    <glyph glyph-name="grave.cap" horiz-adv-x="302" 
d="M225 774l-168 72c-8 4 -11 14 -6 24l23 44c5 9 20 7 26 3l157 -91c6 -3 10 -11 6 -19l-14 -28c-4 -9 -10 -11 -24 -5z" />
    <glyph glyph-name="acute" unicode="&#xb4;" horiz-adv-x="302" 
d="M97 543c-14 -7 -20 -4 -24 4l-14 29c-4 8 0 16 6 19l157 91c6 4 21 6 26 -3l23 -44c5 -10 2 -20 -6 -24z" />
    <glyph glyph-name="acute.cap" horiz-adv-x="302" 
d="M88 774c-13 -6 -20 -4 -24 5l-14 28c-4 8 1 16 6 19l157 91c6 4 21 6 26 -3l23 -44c6 -10 2 -20 -6 -24z" />
    <glyph glyph-name="circumflex" unicode="&#x2c6;" horiz-adv-x="373" 
d="M61 542l-20 27c-5 7 0 15 6 19l125 98c6 5 17 5 24 0l125 -98c6 -4 11 -12 6 -19l-20 -27c-6 -8 -11 -11 -23 -3l-100 65l-100 -65c-12 -7 -17 -5 -23 3z" />
    <glyph glyph-name="circumflex.cap" horiz-adv-x="373" 
d="M84 769c-12 -7 -17 -5 -23 3l-20 27c-5 7 0 15 6 19l125 98c6 5 17 5 24 0l125 -98c6 -4 11 -12 6 -19l-20 -27c-6 -8 -11 -11 -23 -3l-100 65z" />
    <glyph glyph-name="caron" unicode="&#x2c7;" horiz-adv-x="373" 
d="M172 535l-125 98c-6 4 -11 12 -6 19l20 27c6 8 11 10 23 3l100 -65l100 65c12 8 17 5 23 -3l20 -27c5 -7 0 -15 -6 -19l-125 -98c-7 -5 -18 -5 -24 0z" />
    <glyph glyph-name="caron.cap" horiz-adv-x="373" 
d="M172 768l-125 98c-6 4 -11 12 -6 19l20 27c6 8 11 10 23 3l100 -65l100 65c12 8 17 5 23 -3l20 -27c5 -7 0 -15 -6 -19l-125 -98c-7 -5 -18 -5 -24 0z" />
    <glyph glyph-name="caron.alt" horiz-adv-x="373" 
d="M110 647c0 40 31 63 74 63c49 0 87 -30 87 -97c0 -60 -26 -103 -53 -132c-6 -6 -12 -6 -20 -1l-24 18c-8 6 -7 14 -1 20c17 15 30 42 30 67c0 7 -1 13 -3 17c-2 -2 -15 -9 -32 -9c-35 0 -58 24 -58 54z" />
    <glyph glyph-name="tilde" unicode="&#x2dc;" horiz-adv-x="380" 
d="M67 568l-23 15c-10 6 -9 16 -6 23c9 18 39 84 98 84c58 0 77 -64 109 -64c23 0 31 25 41 40c6 10 13 16 25 9c8 -6 20 -11 26 -19c5 -8 2 -16 -3 -27c-10 -22 -39 -75 -94 -75c-51 0 -78 65 -107 65c-24 0 -37 -28 -43 -41c-5 -11 -10 -17 -23 -10z" />
    <glyph glyph-name="tilde.cap" horiz-adv-x="380" 
d="M67 792l-23 15c-10 6 -9 16 -6 23c9 18 39 84 98 84c58 0 77 -64 109 -64c23 0 31 25 41 40c6 10 13 16 25 9c8 -6 20 -11 26 -19c5 -8 2 -16 -3 -27c-10 -22 -39 -75 -94 -75c-51 0 -78 65 -107 65c-24 0 -37 -28 -43 -41c-5 -11 -10 -17 -23 -10z" />
    <glyph glyph-name="dieresis" unicode="&#xa8;" horiz-adv-x="414" 
d="M316 561c-35 0 -62 27 -62 62c0 36 27 63 62 63c36 0 63 -27 63 -63c0 -35 -27 -62 -63 -62zM119 561c-35 0 -62 27 -62 62c0 36 27 63 62 63c36 0 63 -27 63 -63c0 -35 -27 -62 -63 -62z" />
    <glyph glyph-name="dieresis.cap" horiz-adv-x="474" 
d="M351 776c-35 0 -62 28 -62 63s27 62 62 62s63 -27 63 -62s-28 -63 -63 -63zM122 776c-35 0 -62 28 -62 63s27 62 62 62s63 -27 63 -62s-28 -63 -63 -63z" />
    <glyph glyph-name="macron" unicode="&#xaf;" horiz-adv-x="414" 
d="M79 576c-11 0 -19 8 -19 18v28c0 11 8 19 19 19h256c11 0 19 -8 19 -19v-28c0 -10 -8 -18 -19 -18h-256z" />
    <glyph glyph-name="macron.cap" horiz-adv-x="414" 
d="M79 814c-11 0 -19 8 -19 18v28c0 11 8 19 19 19h256c11 0 19 -8 19 -19v-28c0 -10 -8 -18 -19 -18h-256z" />
    <glyph glyph-name="uni02C9" unicode="&#x2c9;" horiz-adv-x="414" 
d="M79 576c-11 0 -19 8 -19 18v28c0 11 8 19 19 19h256c11 0 19 -8 19 -19v-28c0 -10 -8 -18 -19 -18h-256z" />
    <glyph glyph-name="breve" unicode="&#x2d8;" horiz-adv-x="346" 
d="M173 529c-72 0 -128 50 -138 116c-2 12 4 21 16 21h29c10 0 16 -7 18 -15c11 -35 38 -59 75 -59c33 0 62 27 72 59c3 9 10 15 18 15h31c12 0 18 -9 16 -21c-11 -66 -67 -116 -137 -116z" />
    <glyph glyph-name="breve.cap" horiz-adv-x="346" 
d="M173 768c-72 0 -128 50 -138 116c-2 11 4 21 16 21h29c10 0 16 -8 18 -16c11 -34 38 -58 75 -58c33 0 62 27 72 58c3 10 10 16 18 16h31c12 0 18 -10 16 -21c-11 -66 -67 -116 -137 -116z" />
    <glyph glyph-name="ring" unicode="&#x2da;" horiz-adv-x="290" 
d="M145 488c-62 0 -111 49 -111 111s49 111 111 111c61 0 111 -49 111 -111s-50 -111 -111 -111zM145 543c29 0 53 27 53 56s-24 53 -53 53c-33 0 -56 -24 -56 -53s23 -56 56 -56z" />
    <glyph glyph-name="ring.cap" horiz-adv-x="290" 
d="M145 756c-62 0 -111 49 -111 111s49 111 111 111c61 0 111 -49 111 -111s-50 -111 -111 -111zM145 811c29 0 53 27 53 56s-24 53 -53 53c-31 0 -56 -24 -56 -53s24 -56 56 -56z" />
    <glyph glyph-name="hungarumlaut" unicode="&#x2dd;" horiz-adv-x="392" 
d="M232 521c-16 0 -22 9 -19 19l44 141c3 10 9 19 19 19h57c19 0 25 -13 18 -25l-78 -139c-4 -8 -11 -15 -18 -15h-23zM66 521c-15 0 -22 9 -19 19l44 141c3 10 9 19 19 19h57c19 0 25 -12 18 -25l-78 -139c-4 -8 -11 -15 -18 -15h-23z" />
    <glyph glyph-name="hungarumlaut.cap" horiz-adv-x="392" 
d="M226 768c-16 0 -22 9 -19 19l43 141c3 10 9 19 19 19h57c19 0 26 -12 18 -25l-78 -139c-4 -7 -11 -15 -18 -15h-22zM60 768c-14 0 -22 9 -19 19l43 141c3 10 9 19 19 19h57c19 0 25 -12 18 -25l-78 -139c-4 -8 -11 -15 -18 -15h-22z" />
    <glyph glyph-name="dotaccent" unicode="&#x2d9;" horiz-adv-x="219" 
d="M108 547c-37 0 -66 30 -66 67c0 38 29 68 66 68c38 0 68 -30 68 -68c0 -37 -30 -67 -68 -67z" />
    <glyph glyph-name="dotaccent.cap" horiz-adv-x="219" 
d="M108 785c-37 0 -66 30 -66 67c0 38 29 68 66 68c38 0 68 -30 68 -68c0 -37 -30 -67 -68 -67z" />
    <glyph glyph-name="cedilla" unicode="&#xb8;" horiz-adv-x="247" 
d="M113 3h61l-44 -67c6 2 13 2 19 2c44 0 85 -23 85 -82c0 -68 -52 -100 -114 -100c-38 0 -66 11 -83 26c-7 7 -5 15 0 26l9 18c6 13 14 15 24 7c8 -7 25 -17 46 -17c30 0 50 15 50 42s-21 38 -49 38c-18 0 -29 -7 -39 -10c-9 -4 -20 8 -16 17z" />
    <glyph glyph-name="cedilla.cap" horiz-adv-x="247" 
d="M113 3h61l-44 -67c6 2 13 2 19 2c44 0 85 -23 85 -82c0 -68 -52 -100 -114 -100c-38 0 -66 11 -83 26c-7 7 -5 15 0 26l9 18c6 13 14 15 24 7c8 -7 25 -17 46 -17c30 0 50 15 50 42s-21 38 -49 38c-18 0 -29 -7 -39 -10c-9 -4 -20 8 -16 17z" />
    <glyph glyph-name="ogonek" unicode="&#x2db;" horiz-adv-x="276" 
d="M206 3c-33 -21 -102 -72 -102 -128c0 -31 16 -46 43 -46c28 0 54 20 62 27c8 8 18 4 18 -6l1 -44c0 -11 -2 -21 -14 -29c-15 -9 -49 -23 -87 -23c-68 0 -103 45 -103 103c0 76 66 123 104 149z" />
    <glyph glyph-name="ogonek.cap" horiz-adv-x="276" 
d="M206 3c-33 -21 -102 -72 -102 -128c0 -31 16 -46 43 -46c28 0 54 20 62 27c8 8 18 4 18 -6l1 -44c0 -11 -2 -21 -14 -29c-15 -9 -49 -23 -87 -23c-68 0 -103 45 -103 103c0 76 66 123 104 149z" />
    <glyph glyph-name="commaaccent" unicode="&#xf6c3;" horiz-adv-x="292" 
d="M70 -126c0 40 31 63 74 63c49 0 87 -30 87 -97c0 -60 -26 -103 -53 -132c-6 -6 -12 -6 -20 -1l-24 18c-8 6 -7 14 -1 20c17 15 30 42 30 67c0 7 -1 13 -3 17c-2 -2 -15 -9 -32 -9c-35 0 -58 24 -58 54z" />
    <glyph glyph-name="commaaccent.alt" horiz-adv-x="292" 
d="M231 599c0 -40 -31 -63 -74 -63c-49 0 -87 30 -87 97c0 60 26 103 53 132c6 6 12 6 20 1l24 -18c8 -6 7 -14 1 -20c-17 -15 -30 -42 -30 -67c0 -7 1 -13 3 -17c2 2 15 9 32 9c35 0 58 -24 58 -54z" />
    <glyph glyph-name="commaaccent.cap" horiz-adv-x="292" 
d="M70 -126c0 40 31 63 74 63c49 0 87 -30 87 -97c0 -60 -26 -103 -53 -132c-6 -6 -12 -6 -20 -1l-24 18c-8 6 -7 14 -1 20c17 15 30 42 30 67c0 7 -1 13 -3 17c-2 -2 -15 -9 -32 -9c-35 0 -58 24 -58 54z" />
    <glyph glyph-name="ellipsis" unicode="&#x2026;" horiz-adv-x="635" 
d="M458 54c0 36 29 65 65 65s64 -29 64 -65c0 -35 -28 -64 -64 -64s-65 29 -65 64zM253 54c0 36 29 65 64 65c36 0 65 -29 65 -65c0 -35 -29 -64 -65 -64c-35 0 -64 29 -64 64zM48 54c0 36 29 65 64 65c36 0 65 -29 65 -65c0 -35 -29 -64 -65 -64c-35 0 -64 29 -64 64z" />
    <glyph glyph-name="uni00AD" unicode="&#xad;" horiz-adv-x="376" 
d="M80 206c-11 0 -19 8 -19 18v43c0 11 8 19 19 19h216c11 0 19 -8 19 -19v-43c0 -10 -8 -18 -19 -18h-216z" />
    <glyph glyph-name="exclamdown" unicode="&#xa1;" horiz-adv-x="242" 
d="M122 333c-39 0 -70 31 -70 70c0 38 31 69 70 69c37 0 69 -31 69 -69c0 -39 -32 -70 -69 -70zM91 174c1 8 10 16 19 16h22c9 0 18 -8 19 -16l29 -279v-114c0 -10 -9 -19 -19 -19h-80c-10 0 -19 9 -19 19v112z" />
    <glyph glyph-name="questiondown" unicode="&#xbf;" horiz-adv-x="470" 
d="M253 333c-39 0 -70 31 -70 70c0 38 31 69 70 69c38 0 69 -31 69 -69c0 -39 -31 -70 -69 -70zM204 132v37c0 13 9 20 21 20h54c10 0 19 -8 19 -19v-42c0 -109 -145 -122 -145 -214c0 -41 32 -77 90 -77c71 0 103 43 123 60c8 7 16 7 24 0l33 -32c8 -7 6 -18 0 -26
c0 0 -63 -88 -190 -88c-104 0 -184 66 -184 161c0 126 155 149 155 220z" />
    <glyph glyph-name="quoteleft" unicode="&#x2018;" horiz-adv-x="239" 
d="M201 464c0 -37 -30 -66 -70 -66c-49 0 -86 45 -86 116c0 84 35 145 71 188c7 7 14 8 20 2l24 -19c7 -7 5 -13 -1 -20c-27 -34 -51 -78 -51 -121c0 -12 1 -20 5 -26c7 7 19 10 31 10c37 0 57 -29 57 -64z" />
    <glyph glyph-name="quoteright" unicode="&#x2019;" horiz-adv-x="236" 
d="M37 644c0 37 30 66 70 66c49 0 86 -45 86 -116c0 -84 -35 -145 -71 -188c-7 -7 -14 -8 -20 -2l-24 19c-7 7 -5 13 1 20c27 34 51 78 51 121c0 12 -1 20 -5 26c-7 -7 -19 -10 -31 -10c-37 0 -57 29 -57 64z" />
    <glyph glyph-name="quotedblleft" unicode="&#x201c;" horiz-adv-x="438" 
d="M201 464c0 -37 -30 -66 -70 -66c-49 0 -86 45 -86 116c0 84 35 145 71 188c7 7 14 8 20 2l24 -19c7 -7 5 -13 -1 -20c-27 -34 -51 -78 -51 -121c0 -12 1 -20 5 -26c7 7 19 10 31 10c37 0 57 -29 57 -64zM400 464c0 -37 -30 -66 -70 -66c-49 0 -86 45 -86 116
c0 84 35 145 71 188c7 7 14 8 20 2l24 -19c7 -7 5 -13 -1 -20c-27 -34 -51 -78 -51 -121c0 -12 1 -20 5 -26c7 7 19 10 31 10c37 0 57 -29 57 -64z" />
    <glyph glyph-name="quotedblright" unicode="&#x201d;" horiz-adv-x="436" 
d="M37 644c0 37 30 66 70 66c49 0 86 -45 86 -116c0 -84 -35 -145 -71 -188c-7 -7 -14 -8 -20 -2l-24 19c-7 7 -5 13 1 20c27 34 51 78 51 121c0 12 -1 20 -5 26c-7 -7 -19 -10 -31 -10c-37 0 -57 29 -57 64zM237 644c0 37 30 66 70 66c49 0 86 -45 86 -116
c0 -84 -35 -145 -71 -188c-7 -7 -14 -8 -20 -2l-24 19c-7 7 -5 13 1 20c27 34 51 78 51 121c0 12 -1 20 -5 26c-7 -7 -19 -10 -31 -10c-37 0 -57 29 -57 64z" />
    <glyph glyph-name="quotesinglbase" unicode="&#x201a;" horiz-adv-x="248" 
d="M47 67c0 37 30 66 70 66c49 0 86 -45 86 -116c0 -84 -35 -145 -71 -188c-7 -7 -14 -8 -20 -2l-24 19c-7 7 -5 13 1 20c27 34 51 78 51 121c0 12 -1 20 -5 26c-7 -7 -19 -10 -31 -10c-37 0 -57 29 -57 64z" />
    <glyph glyph-name="quotedblbase" unicode="&#x201e;" horiz-adv-x="448" 
d="M47 67c0 37 30 66 70 66c49 0 86 -45 86 -116c0 -84 -35 -145 -71 -188c-7 -7 -14 -8 -20 -2l-24 19c-7 7 -5 13 1 20c27 34 51 78 51 121c0 12 -1 20 -5 26c-7 -7 -19 -10 -31 -10c-37 0 -57 29 -57 64zM247 67c0 37 30 66 70 66c49 0 86 -45 86 -116
c0 -84 -35 -145 -71 -188c-7 -7 -14 -8 -20 -2l-24 19c-7 7 -5 13 1 20c27 34 51 78 51 121c0 12 -1 20 -5 26c-7 -7 -19 -10 -31 -10c-37 0 -57 29 -57 64z" />
    <glyph glyph-name="guilsinglleft" unicode="&#x2039;" horiz-adv-x="277" 
d="M149 69l-104 155c-6 8 -4 18 0 24l109 148c3 5 10 12 18 12h35c17 0 23 -15 15 -31l-71 -139l68 -147c7 -16 2 -30 -15 -30h-40c-8 0 -12 4 -15 8z" />
    <glyph glyph-name="guilsinglright" unicode="&#x203a;" horiz-adv-x="277" 
d="M72 61c-17 0 -22 14 -15 30l68 147l-71 139c-8 16 -2 31 15 31h35c8 0 15 -7 18 -12l109 -148c4 -6 6 -16 0 -24l-104 -155c-3 -4 -7 -8 -15 -8h-40z" />
    <glyph glyph-name="guillemotleft" unicode="&#xab;" horiz-adv-x="458" 
d="M226 224c-6 8 -4 18 0 24l109 148c3 5 10 12 18 12h35c17 0 23 -15 15 -31l-71 -139l68 -147c7 -16 2 -30 -15 -30h-40c-8 0 -12 4 -15 8zM149 69l-104 155c-6 8 -4 18 0 24l109 148c3 5 10 12 18 12h35c17 0 23 -15 15 -31l-71 -139l68 -147c7 -16 2 -30 -15 -30h-40
c-8 0 -12 4 -15 8z" />
    <glyph glyph-name="guillemotright" unicode="&#xbb;" horiz-adv-x="458" 
d="M238 91l68 147l-71 139c-8 16 -2 31 15 31h35c8 0 15 -7 18 -12l109 -148c4 -6 6 -16 0 -24l-104 -155c-3 -4 -7 -8 -15 -8h-40c-17 0 -22 14 -15 30zM72 61c-17 0 -22 14 -15 30l68 147l-71 139c-8 16 -2 31 15 31h35c8 0 15 -7 18 -12l109 -148c4 -6 6 -16 0 -24
l-104 -155c-3 -4 -7 -8 -15 -8h-40z" />
    <glyph glyph-name="endash" unicode="&#x2013;" horiz-adv-x="546" 
d="M82 216c-11 0 -19 8 -19 18v24c0 11 8 19 19 19h382c11 0 19 -8 19 -19v-24c0 -10 -8 -18 -19 -18h-382z" />
    <glyph glyph-name="emdash" unicode="&#x2014;" horiz-adv-x="766" 
d="M82 216c-11 0 -19 8 -19 18v24c0 11 8 19 19 19h602c11 0 19 -8 19 -19v-24c0 -10 -8 -18 -19 -18h-602z" />
    <glyph glyph-name="bullet" unicode="&#x2022;" horiz-adv-x="380" 
d="M188 137c-63 0 -117 53 -117 117c0 66 54 121 117 121c67 0 121 -55 121 -121c0 -64 -54 -117 -121 -117z" />
    <glyph glyph-name="periodcentered" unicode="&#xb7;" horiz-adv-x="249" 
d="M124 185c-40 0 -73 34 -73 73c0 42 33 75 73 75c41 0 74 -33 74 -75c0 -39 -33 -73 -74 -73z" />
    <glyph glyph-name="uni2219" unicode="&#x2219;" horiz-adv-x="249" 
d="M124 185c-40 0 -73 34 -73 73c0 42 33 75 73 75c41 0 74 -33 74 -75c0 -39 -33 -73 -74 -73z" />
    <glyph glyph-name="dagger" unicode="&#x2020;" horiz-adv-x="598" 
d="M59 310c-10 0 -19 9 -19 19v52c0 10 9 19 19 19h182v281c0 10 9 19 19 19h73c10 0 19 -9 19 -19v-281h188c10 0 18 -9 18 -19v-52c0 -10 -8 -19 -18 -19h-192l-25 -532c0 -8 -10 -16 -19 -16h-15c-9 0 -19 8 -19 16l-24 532h-187z" />
    <glyph glyph-name="daggerdbl" unicode="&#x2021;" horiz-adv-x="614" 
d="M78 19v52c0 10 9 19 19 19h164l-12 309h-182c-10 0 -19 9 -19 19v52c0 10 9 19 19 19h182v192c0 10 9 19 19 19h73c10 0 19 -9 19 -19v-192h188c10 0 18 -9 18 -19v-52c0 -10 -8 -19 -18 -19h-188l-12 -309h170c10 0 18 -9 18 -19v-52c0 -10 -8 -19 -18 -19h-175
l-12 -222c0 -8 -10 -16 -19 -16h-15c-9 0 -19 8 -19 16l-12 222h-169c-10 0 -19 9 -19 19z" />
    <glyph glyph-name="section" unicode="&#xa7;" horiz-adv-x="563" 
d="M95 -99c8 11 20 16 33 5c6 -4 80 -67 156 -67c51 0 105 26 109 78c4 61 -47 102 -147 144c-98 41 -178 101 -178 199c0 75 61 119 76 132c-13 12 -76 61 -76 143c0 77 63 175 214 175c98 0 172 -51 181 -58c7 -4 16 -17 7 -32l-28 -41c-8 -12 -18 -15 -33 -5
c-10 6 -73 48 -130 48c-79 0 -112 -46 -112 -82c0 -50 44 -86 124 -118c115 -47 212 -98 212 -206c0 -74 -65 -126 -79 -139c13 -11 79 -63 79 -149c0 -101 -96 -178 -218 -178c-120 0 -195 64 -210 78c-9 8 -18 17 -5 34zM165 266c0 -71 73 -92 180 -144c0 0 52 27 52 89
c0 56 -55 85 -155 127c-9 4 -20 8 -29 11c-3 -3 -48 -27 -48 -83z" />
    <glyph glyph-name="paragraph" unicode="&#xb6;" horiz-adv-x="752" 
d="M250 281c-113 0 -208 92 -208 210c0 114 85 209 194 209h449c10 0 19 -9 19 -19v-34c0 -11 -9 -19 -19 -19h-94v-847c0 -10 -8 -19 -19 -19h-38c-10 0 -19 9 -19 19v847h-146v-847c0 -10 -9 -19 -19 -19h-37c-10 0 -19 9 -19 19v500h-44z" />
    <glyph glyph-name="brokenbar.case" horiz-adv-x="197" 
d="M94 462c-10 0 -19 8 -19 18v331c0 11 9 19 19 19h10c10 0 18 -8 18 -19v-331c0 -10 -9 -18 -19 -18h-9zM75 181c0 11 9 19 19 19h10c10 0 18 -8 18 -19v-331c0 -10 -9 -18 -19 -18h-9c-10 0 -19 8 -19 18v331z" />
    <glyph glyph-name="copyright" unicode="&#xa9;" horiz-adv-x="837" 
d="M59 350c0 198 161 360 359 360s360 -162 360 -360s-162 -359 -360 -359s-359 161 -359 359zM128 350c0 -160 130 -290 290 -290c161 0 290 130 290 290c0 161 -129 290 -290 290c-160 0 -290 -129 -290 -290zM240 348c0 105 84 188 187 188c40 0 82 -12 115 -38
c9 -8 10 -20 2 -29l-26 -28c-7 -10 -18 -7 -26 -2c-20 14 -42 20 -64 20c-61 0 -105 -50 -105 -108c0 -61 44 -108 105 -108c22 0 43 6 62 19c10 6 20 7 27 -2l28 -29c7 -8 7 -20 -1 -28c-35 -30 -74 -42 -117 -42c-103 0 -187 84 -187 187z" />
    <glyph glyph-name="registered" unicode="&#xae;" horiz-adv-x="837" 
d="M59 350c0 198 161 360 359 360s360 -162 360 -360s-162 -359 -360 -359s-359 161 -359 359zM128 350c0 -160 130 -290 290 -290c161 0 290 130 290 290c0 161 -129 290 -290 290c-160 0 -290 -129 -290 -290zM289 187v328c0 10 8 19 19 19h148c62 0 123 -42 123 -118
c0 -71 -46 -99 -76 -110c18 -37 36 -75 53 -111c7 -13 -3 -27 -17 -27h-45c-8 0 -15 7 -18 14l-50 118h-62v-113c0 -10 -8 -19 -19 -19h-37c-11 0 -19 9 -19 19zM362 366h89c30 0 50 22 50 49c0 29 -20 49 -50 49h-89v-98z" />
    <glyph glyph-name="trademark" unicode="&#x2122;" horiz-adv-x="768" 
d="M358 391c-13 0 -21 11 -19 23l52 276c2 8 10 15 19 15h4c6 0 15 -6 17 -11l84 -199l86 199c2 5 11 11 17 11h4c8 0 17 -7 19 -15l53 -277c2 -12 -7 -22 -19 -22h-26c-9 0 -17 8 -19 17l-28 145l-68 -156c-2 -5 -10 -9 -16 -9h-6c-5 0 -14 4 -17 10l-65 155l-30 -146
c-1 -8 -11 -16 -19 -16h-23zM175 391c-11 0 -19 9 -19 19v228h-67c-10 0 -19 8 -19 19v24c0 10 9 19 19 19h198c11 0 19 -9 19 -19v-24c0 -11 -8 -19 -19 -19h-67v-228c0 -10 -9 -19 -19 -19h-26z" />
    <glyph glyph-name="currency" unicode="&#xa4;" horiz-adv-x="486" 
d="M109 168l-30 30c-7 7 -7 20 0 27l45 44c-11 20 -16 42 -16 63s5 42 16 62l-44 45c-7 7 -7 20 0 27l30 29c7 7 20 7 27 0l44 -44c19 11 41 16 63 16c21 0 43 -5 62 -16l44 45c7 7 19 6 27 -1l29 -30c7 -7 8 -19 1 -26l-44 -44c10 -20 16 -41 16 -63s-6 -44 -16 -64l44 -44
c7 -7 7 -19 0 -26l-30 -30c-7 -7 -19 -8 -26 -1l-45 45c-19 -10 -41 -16 -62 -16c-22 0 -44 6 -64 17l-44 -45c-7 -7 -20 -7 -27 0zM244 269c35 0 63 28 63 63s-28 63 -63 63s-63 -28 -63 -63s28 -63 63 -63z" />
    <glyph glyph-name="Euro" unicode="&#x20ac;" 
d="M43 299h48c-2 16 -2 33 -2 50v22h-46c-10 0 -18 9 -18 19v10c0 10 8 19 18 19h51c23 158 127 291 286 291c71 0 136 -24 182 -68c9 -8 8 -19 2 -28l-33 -48c-7 -10 -20 -10 -30 0c-34 34 -73 45 -120 45c-86 0 -157 -70 -176 -192h241c11 0 19 -9 19 -19v-11
c0 -10 -8 -18 -19 -18h-246v-20c0 -18 0 -35 2 -52h204c11 0 19 -9 19 -19v-11c0 -10 -8 -18 -19 -18h-195c21 -91 75 -160 171 -160c46 0 79 13 119 46c9 7 20 7 29 -6l31 -47c6 -9 5 -20 -2 -27c-44 -43 -96 -68 -181 -68c-143 0 -250 99 -280 262h-55c-10 0 -18 9 -18 19
v10c0 10 8 19 18 19z" />
    <glyph glyph-name="cent" unicode="&#xa2;" horiz-adv-x="534" 
d="M63 230c0 136 109 241 237 241c6 0 13 -1 19 -1l13 49c3 11 15 19 26 14l12 -3c11 -2 19 -13 15 -26l-12 -44c37 -12 68 -35 95 -68c9 -11 6 -24 -4 -33l-36 -33c-13 -12 -22 -3 -30 5c-13 13 -30 27 -50 36l-76 -280c9 -2 18 -3 28 -3c60 0 84 34 109 57
c10 10 21 10 31 2l31 -25c11 -10 16 -21 8 -33c-38 -57 -100 -96 -180 -96c-18 0 -35 2 -52 6l-31 -115c-2 -11 -14 -17 -26 -14l-10 3c-12 3 -19 13 -16 25l32 118c-79 38 -133 118 -133 218zM163 231c0 -52 23 -96 59 -122l72 267c-75 -4 -131 -66 -131 -145z" />
    <glyph glyph-name="sterling" unicode="&#xa3;" 
d="M126 19v18c34 63 45 122 45 177c0 27 -2 53 -7 78h-44c-10 0 -18 9 -18 19v10c0 10 8 19 18 19h32c-8 35 -31 95 -31 161c0 130 93 209 210 209c86 0 144 -49 169 -71c8 -6 9 -18 2 -26l-35 -43c-9 -12 -20 -10 -28 -2c0 0 -54 52 -109 52c-62 0 -112 -46 -112 -117
c0 -63 29 -126 36 -163h140c11 0 19 -9 19 -19v-11c0 -10 -8 -18 -19 -18h-130c3 -17 4 -39 4 -63c0 -46 -6 -99 -22 -142h223c10 0 18 -8 18 -19v-49c0 -10 -8 -19 -18 -19h-324c-10 0 -19 9 -19 19z" />
    <glyph glyph-name="florin" unicode="&#x192;" horiz-adv-x="361" 
d="M113 -63v383h-68c-11 0 -19 9 -19 19v44c0 11 8 19 19 19h68v122c0 123 77 186 173 186c56 0 93 -25 111 -40c6 -6 8 -17 4 -24l-27 -44c-6 -9 -16 -9 -25 -3c-9 7 -40 23 -63 23c-41 0 -76 -29 -76 -98v-122h108c11 0 19 -8 19 -19v-44c0 -10 -8 -19 -19 -19h-108v-384
c0 -123 -77 -185 -173 -185c-56 0 -93 24 -111 40c-6 6 -8 16 -4 23l27 44c6 9 16 10 25 3s40 -23 63 -23c41 0 76 29 76 99z" />
    <glyph glyph-name="yen" unicode="&#xa5;" 
d="M126 121c-10 0 -18 9 -18 19v10c0 10 8 19 18 19h121v72h-121c-10 0 -18 9 -18 19v10c0 10 8 19 18 19h121v48l-235 334c-8 13 0 29 16 29h75c7 0 13 -5 16 -9l181 -255l181 255c3 4 8 9 16 9h75c16 0 24 -16 16 -29l-238 -333v-49h119c11 0 19 -9 19 -19v-11
c0 -10 -8 -18 -19 -18h-119v-72h119c11 0 19 -9 19 -19v-11c0 -10 -8 -18 -19 -18h-119v-102c0 -10 -9 -19 -19 -19h-65c-11 0 -19 9 -19 19v102h-121z" />
    <glyph glyph-name="ordfeminine" unicode="&#xaa;" horiz-adv-x="338" 
d="M135 401c-54 0 -94 39 -94 99c0 54 42 95 117 95c31 0 57 -9 57 -9c0 46 -6 66 -44 66c-34 0 -66 -11 -82 -15c-8 -2 -14 3 -16 13l-5 25c-2 9 1 14 8 17c5 3 48 18 102 18c91 0 102 -56 102 -131v-156c0 -8 -7 -14 -14 -14h-22c-7 0 -10 3 -13 10c-2 7 -5 14 -7 21
c-17 -16 -42 -39 -89 -39zM148 456c29 0 56 20 65 37v44c-8 6 -30 12 -53 12c-31 0 -56 -20 -56 -48c0 -25 18 -45 44 -45z" />
    <glyph glyph-name="ordmasculine" unicode="&#xba;" horiz-adv-x="340" 
d="M170 395c-81 0 -126 59 -126 157c0 99 45 158 126 158s126 -59 126 -158c0 -98 -45 -157 -126 -157zM170 456c35 0 56 34 56 96s-21 97 -56 97s-55 -35 -55 -97s20 -96 55 -96z" />
    <glyph glyph-name="onesuperior" unicode="&#xb9;" horiz-adv-x="194" 
d="M90 504c-6 0 -10 4 -10 9v201l-45 -7c-5 -1 -9 1 -9 6l-4 24c0 5 1 7 5 11l72 52h40c5 0 9 -4 9 -9v-278c0 -5 -4 -9 -9 -9h-49z" />
    <glyph glyph-name="twosuperior" unicode="&#xb2;" horiz-adv-x="281" 
d="M39 504c-6 0 -10 2 -10 9v15l118 130c19 20 29 37 29 53c0 20 -16 41 -49 41c-20 0 -41 -13 -53 -25c-5 -5 -10 -3 -14 1l-21 26c-4 6 -6 11 2 16c3 3 40 40 95 40c68 0 107 -39 107 -91c0 -31 -17 -59 -43 -88l-67 -73h100c6 0 9 -4 9 -10v-35c0 -5 -2 -9 -9 -9h-194z
" />
    <glyph glyph-name="threesuperior" unicode="&#xb3;" horiz-adv-x="282" 
d="M132 494c-60 0 -89 27 -99 37c-5 4 -5 9 0 14l21 25c5 5 10 4 15 0c2 -1 27 -21 57 -21c28 0 51 15 51 38c0 22 -19 41 -60 41h-30c-8 0 -13 3 -13 11v28c0 8 5 12 13 12h30c35 0 53 16 53 37c0 23 -21 38 -46 38c-22 0 -38 -11 -48 -20c-4 -3 -8 -5 -14 1l-22 24
c-4 4 -5 11 1 15c0 0 35 36 91 36c61 0 106 -32 106 -83c0 -35 -28 -61 -51 -70v-2c23 -9 60 -34 60 -75c0 -52 -49 -86 -115 -86z" />
    <glyph glyph-name="fraction" unicode="&#x2044;" horiz-adv-x="120" 
d="M-80 10c-2 -4 -12 -10 -17 -10h-31c-15 0 -24 14 -17 27l343 663c4 6 12 10 17 10h33c15 0 24 -14 17 -27z" />
    <glyph glyph-name="uni2215" unicode="&#x2215;" horiz-adv-x="120" 
d="M-80 10c-2 -4 -12 -10 -17 -10h-31c-15 0 -24 14 -17 27l343 663c4 6 12 10 17 10h33c15 0 24 -14 17 -27z" />
    <glyph glyph-name="onehalf" unicode="&#xbd;" horiz-adv-x="656" 
d="M107 27l343 663c4 6 12 10 17 10h33c15 0 24 -14 17 -27l-345 -663c-2 -4 -12 -10 -17 -10h-31c-15 0 -24 14 -17 27zM115 404c-6 0 -10 4 -10 9v201l-45 -7c-5 -1 -9 1 -9 6l-4 24c0 5 1 7 5 11l72 52h40c5 0 9 -4 9 -9v-278c0 -5 -4 -9 -9 -9h-49zM387 9v15l118 130
c19 20 29 37 29 53c0 20 -16 41 -49 41c-20 0 -41 -13 -53 -25c-5 -5 -10 -3 -14 1l-21 26c-4 6 -6 11 2 16c3 3 40 40 95 40c68 0 107 -39 107 -91c0 -31 -17 -59 -43 -88l-67 -73h100c6 0 9 -4 9 -10v-35c0 -5 -2 -9 -9 -9h-194c-6 0 -10 2 -10 9z" />
    <glyph glyph-name="onethird" unicode="&#x2153;" horiz-adv-x="659" 
d="M107 27l343 663c4 6 12 10 17 10h33c15 0 24 -14 17 -27l-345 -663c-2 -4 -12 -10 -17 -10h-31c-15 0 -24 14 -17 27zM115 404c-6 0 -10 4 -10 9v201l-45 -7c-5 -1 -9 1 -9 6l-4 24c0 5 1 7 5 11l72 52h40c5 0 9 -4 9 -9v-278c0 -5 -4 -9 -9 -9h-49zM393 27
c-5 4 -5 9 0 14l21 25c5 5 10 4 15 0c2 -1 27 -21 57 -21c28 0 51 15 51 38c0 22 -19 41 -60 41h-30c-8 0 -13 3 -13 11v28c0 8 5 12 13 12h30c35 0 53 16 53 37c0 23 -21 38 -46 38c-22 0 -38 -11 -48 -20c-4 -3 -8 -5 -14 1l-22 24c-4 4 -5 11 1 15c0 0 35 36 91 36
c61 0 106 -32 106 -83c0 -35 -28 -61 -51 -70v-2c23 -9 60 -34 60 -75c0 -52 -49 -86 -115 -86c-60 0 -89 27 -99 37z" />
    <glyph glyph-name="onequarter" unicode="&#xbc;" horiz-adv-x="665" 
d="M107 27l343 663c4 6 12 10 17 10h33c15 0 24 -14 17 -27l-345 -663c-2 -4 -12 -10 -17 -10h-31c-15 0 -24 14 -17 27zM115 404c-6 0 -10 4 -10 9v201l-45 -7c-5 -1 -9 1 -9 6l-4 24c0 5 1 7 5 11l72 52h40c5 0 9 -4 9 -9v-278c0 -5 -4 -9 -9 -9h-49zM352 66v40l167 187
c2 2 6 3 8 3h31c5 0 10 -4 10 -9v-178h40c5 0 9 -4 9 -8v-34c0 -5 -4 -9 -9 -9h-40v-49c0 -5 -5 -9 -10 -9h-44c-5 0 -10 4 -10 9v49h-143c-5 0 -9 4 -9 8zM416 109h90v101z" />
    <glyph glyph-name="oneeighth" unicode="&#x215b;" horiz-adv-x="680" 
d="M107 27l343 663c4 6 12 10 17 10h33c15 0 24 -14 17 -27l-345 -663c-2 -4 -12 -10 -17 -10h-31c-15 0 -24 14 -17 27zM115 404c-6 0 -10 4 -10 9v201l-45 -7c-5 -1 -9 1 -9 6l-4 24c0 5 1 7 5 11l72 52h40c5 0 9 -4 9 -9v-278c0 -5 -4 -9 -9 -9h-49zM398 76
c0 43 46 71 58 76v1c-20 9 -50 33 -50 70c0 50 47 83 107 83s108 -33 108 -83c0 -36 -31 -61 -51 -70v-1c23 -9 59 -34 59 -76c0 -49 -45 -86 -117 -86c-69 0 -114 37 -114 86zM474 217c0 -19 13 -33 39 -37c26 4 40 19 40 37c0 19 -18 35 -41 35c-21 0 -38 -16 -38 -35z
M468 80c0 -22 22 -36 45 -36c25 0 46 14 46 36c0 19 -16 38 -46 42c-28 -4 -45 -23 -45 -42z" />
    <glyph glyph-name="twothirds" unicode="&#x2154;" horiz-adv-x="705" 
d="M60 404c-6 0 -10 2 -10 9v15l118 130c19 20 29 37 29 53c0 20 -16 41 -49 41c-20 0 -41 -13 -53 -25c-5 -5 -10 -3 -14 1l-21 26c-4 6 -6 11 2 16c3 3 40 40 95 40c68 0 107 -39 107 -91c0 -31 -17 -59 -43 -88l-67 -73h100c6 0 9 -4 9 -10v-35c0 -5 -2 -9 -9 -9h-194z
M156 27l343 663c4 6 12 10 17 10h33c15 0 24 -14 17 -27l-345 -663c-2 -4 -12 -10 -17 -10h-31c-15 0 -24 14 -17 27zM442 27c-5 4 -5 9 0 14l21 25c5 5 10 4 15 0c2 -1 27 -21 57 -21c28 0 51 15 51 38c0 22 -19 41 -60 41h-30c-8 0 -13 3 -13 11v28c0 8 5 12 13 12h30
c35 0 53 16 53 37c0 23 -21 38 -46 38c-22 0 -38 -11 -48 -20c-4 -3 -8 -5 -14 1l-22 24c-4 4 -5 11 1 15c0 0 35 36 91 36c61 0 106 -32 106 -83c0 -35 -28 -61 -51 -70v-2c23 -9 60 -34 60 -75c0 -52 -49 -86 -115 -86c-60 0 -89 27 -99 37z" />
    <glyph glyph-name="threequarters" unicode="&#xbe;" horiz-adv-x="703" 
d="M154 394c-60 0 -89 27 -99 37c-5 4 -5 9 0 14l21 25c5 5 10 4 15 0c2 -1 27 -21 57 -21c28 0 51 15 51 38c0 22 -19 41 -60 41h-30c-8 0 -13 3 -13 11v28c0 8 5 12 13 12h30c35 0 53 16 53 37c0 23 -21 38 -46 38c-22 0 -38 -11 -48 -20c-4 -3 -8 -5 -14 1l-22 24
c-4 4 -5 11 1 15c0 0 35 36 91 36c61 0 106 -32 106 -83c0 -35 -28 -61 -51 -70v-2c23 -9 60 -34 60 -75c0 -52 -49 -86 -115 -86zM146 27l343 663c4 6 12 10 17 10h33c15 0 24 -14 17 -27l-345 -663c-2 -4 -12 -10 -17 -10h-31c-15 0 -24 14 -17 27zM391 66v40l167 187
c2 2 6 3 8 3h31c5 0 10 -4 10 -9v-178h40c5 0 9 -4 9 -8v-34c0 -5 -4 -9 -9 -9h-40v-49c0 -5 -5 -9 -10 -9h-44c-5 0 -10 4 -10 9v49h-143c-5 0 -9 4 -9 8zM455 109h90v101z" />
    <glyph glyph-name="threeeighths" unicode="&#x215c;" horiz-adv-x="715" 
d="M152 394c-60 0 -89 27 -99 37c-5 4 -5 9 0 14l21 25c5 5 10 4 15 0c2 -1 27 -21 57 -21c28 0 51 15 51 38c0 22 -19 41 -60 41h-30c-8 0 -13 3 -13 11v28c0 8 5 12 13 12h30c35 0 53 16 53 37c0 23 -21 38 -46 38c-22 0 -38 -11 -48 -20c-4 -3 -8 -5 -14 1l-22 24
c-4 4 -5 11 1 15c0 0 35 36 91 36c61 0 106 -32 106 -83c0 -35 -28 -61 -51 -70v-2c23 -9 60 -34 60 -75c0 -52 -49 -86 -115 -86zM144 27l343 663c4 6 12 10 17 10h33c15 0 24 -14 17 -27l-345 -663c-2 -4 -12 -10 -17 -10h-31c-15 0 -24 14 -17 27zM435 76
c0 43 46 71 58 76v1c-20 9 -50 33 -50 70c0 50 47 83 107 83s108 -33 108 -83c0 -36 -31 -61 -51 -70v-1c23 -9 59 -34 59 -76c0 -49 -45 -86 -117 -86c-69 0 -114 37 -114 86zM511 217c0 -19 13 -33 39 -37c26 4 40 19 40 37c0 19 -18 35 -41 35c-21 0 -38 -16 -38 -35z
M505 80c0 -22 22 -36 45 -36c25 0 46 14 46 36c0 19 -16 38 -46 42c-28 -4 -45 -23 -45 -42z" />
    <glyph glyph-name="fiveeighths" unicode="&#x215d;" horiz-adv-x="717" 
d="M147 27l343 663c4 6 12 10 17 10h33c15 0 24 -14 17 -27l-345 -663c-2 -4 -12 -10 -17 -10h-31c-15 0 -24 14 -17 27zM154 394c-52 0 -84 24 -97 38c-5 6 -6 9 -1 15l24 26c5 5 9 6 14 1c2 -2 27 -24 62 -24c31 0 55 22 55 48s-20 45 -57 45h-76c-10 0 -15 8 -15 16v132
c0 5 4 9 9 9h158c5 0 9 -4 9 -9v-36c0 -4 -4 -8 -9 -8h-110v-50h42c72 0 114 -38 114 -98c0 -59 -50 -105 -122 -105zM438 76c0 43 46 71 58 76v1c-20 9 -50 33 -50 70c0 50 47 83 107 83s108 -33 108 -83c0 -36 -31 -61 -51 -70v-1c23 -9 59 -34 59 -76
c0 -49 -45 -86 -117 -86c-69 0 -114 37 -114 86zM514 217c0 -19 13 -33 39 -37c26 4 40 19 40 37c0 19 -18 35 -41 35c-21 0 -38 -16 -38 -35zM508 80c0 -22 22 -36 45 -36c25 0 46 14 46 36c0 19 -16 38 -46 42c-28 -4 -45 -23 -45 -42z" />
    <glyph glyph-name="seveneighths" unicode="&#x215e;" horiz-adv-x="684" 
d="M113 27l343 663c4 6 12 10 17 10h33c15 0 24 -14 17 -27l-345 -663c-2 -4 -12 -10 -17 -10h-31c-15 0 -24 14 -17 27zM73 404c-6 0 -10 1 -10 7v7l124 227h-126c-5 0 -9 4 -9 9v37c0 5 4 9 9 9h200c5 0 9 -4 9 -9v-13l-137 -265c-4 -7 -8 -9 -14 -9h-46zM404 76
c0 43 46 71 58 76v1c-20 9 -50 33 -50 70c0 50 47 83 107 83s108 -33 108 -83c0 -36 -31 -61 -51 -70v-1c23 -9 59 -34 59 -76c0 -49 -45 -86 -117 -86c-69 0 -114 37 -114 86zM480 217c0 -19 13 -33 39 -37c26 4 40 19 40 37c0 19 -18 35 -41 35c-21 0 -38 -16 -38 -35z
M474 80c0 -22 22 -36 45 -36c25 0 46 14 46 36c0 19 -16 38 -46 42c-28 -4 -45 -23 -45 -42z" />
    <glyph glyph-name="perthousand" unicode="&#x2030;" horiz-adv-x="993" 
d="M185 441c-75 0 -135 60 -135 135s60 135 135 135c74 0 135 -60 135 -135s-61 -135 -135 -135zM138 27l343 663c4 6 12 10 17 10h33c15 0 24 -14 17 -27l-345 -663c-2 -4 -12 -10 -17 -10h-31c-15 0 -24 14 -17 27zM185 512c34 0 62 28 62 64c0 33 -28 62 -62 62
c-35 0 -63 -29 -63 -62c0 -36 28 -64 63 -64zM679 124c0 75 61 135 135 135c75 0 136 -60 136 -135s-61 -135 -136 -135c-74 0 -135 60 -135 135zM373 124c0 75 60 135 135 135c74 0 135 -60 135 -135s-61 -135 -135 -135c-75 0 -135 60 -135 135zM751 124
c0 -35 28 -63 63 -63c34 0 63 28 63 63c0 34 -29 62 -63 62c-35 0 -63 -28 -63 -62zM444 124c0 -35 28 -63 64 -63c33 0 62 28 62 63c0 34 -29 62 -62 62c-36 0 -64 -28 -64 -62z" />
    <glyph glyph-name="minus" unicode="&#x2212;" 
d="M107 307c-10 0 -19 9 -19 19v42c0 10 9 19 19 19h387c10 0 18 -9 18 -19v-42c0 -10 -8 -19 -18 -19h-387z" />
    <glyph glyph-name="plusminus" unicode="&#xb1;" 
d="M260 263v110h-153c-10 0 -19 9 -19 19v42c0 10 9 19 19 19h153v148c0 10 9 18 19 18h42c10 0 19 -8 19 -18v-148h154c10 0 18 -9 18 -19v-42c0 -10 -8 -19 -18 -19h-154v-110c0 -10 -9 -18 -19 -18h-42c-10 0 -19 8 -19 18zM88 71v42c0 10 9 19 19 19h387
c10 0 18 -9 18 -19v-42c0 -10 -8 -19 -18 -19h-387c-10 0 -19 9 -19 19z" />
    <glyph glyph-name="multiply" unicode="&#xd7;" 
d="M165 182l-30 30c-7 7 -7 19 0 26l108 109l-108 108c-7 7 -7 20 0 27l29 30c7 7 20 7 27 0l108 -108l109 109c7 7 19 6 26 -1l30 -30c7 -7 8 -19 1 -26l-109 -109l109 -109c7 -8 6 -20 -1 -27l-30 -29c-7 -7 -19 -8 -26 -1l-109 110l-108 -109c-7 -7 -19 -7 -26 0z" />
    <glyph glyph-name="divide" unicode="&#xf7;" 
d="M297 471c-34 0 -63 29 -63 63c0 35 29 63 63 63c35 0 63 -28 63 -63c0 -34 -28 -63 -63 -63zM107 306c-10 0 -19 9 -19 19v42c0 10 9 19 19 19h387c10 0 18 -9 18 -19v-42c0 -10 -8 -19 -18 -19h-387zM234 165c0 35 28 63 63 63s63 -28 63 -63c0 -34 -28 -63 -63 -63
s-63 29 -63 63z" />
    <glyph glyph-name="notequal" unicode="&#x2260;" 
d="M196 54c-9 4 -14 15 -10 24l26 55h-69c-11 0 -19 9 -19 19v44c0 10 8 19 19 19h107l60 129h-167c-11 0 -19 9 -19 19v43c0 10 8 19 19 19h205l35 76c4 10 16 13 25 9l9 -5c10 -4 15 -15 9 -24l-26 -56h55c11 0 19 -9 19 -19v-43c0 -10 -8 -19 -19 -19h-93l-59 -129h152
c11 0 19 -9 19 -19v-44c0 -10 -8 -19 -19 -19h-190l-35 -75c-4 -10 -16 -13 -25 -9z" />
    <glyph glyph-name="approxequal" unicode="&#x2248;" 
d="M145 321l-29 24c-7 6 -8 14 -3 21c-2 -3 46 83 119 83c37 0 62 -20 79 -33c16 -11 34 -30 57 -30c50 0 53 72 83 50l29 -25c5 -5 6 -13 1 -21c1 3 -42 -79 -114 -79c-63 0 -87 62 -135 62c-53 0 -62 -74 -87 -52zM153 130l-29 24c-7 7 -8 15 -3 22c-2 -4 45 82 119 82
c37 0 61 -20 79 -33c15 -11 34 -29 57 -29c50 0 53 71 82 49l30 -24c5 -5 6 -14 1 -21c1 2 -42 -80 -114 -80c-63 0 -87 62 -135 62c-53 0 -63 -74 -87 -52z" />
    <glyph glyph-name="lessequal" unicode="&#x2264;" 
d="M90 383c-7 3 -10 7 -10 17v8c0 7 3 12 10 16l393 190c11 6 21 0 21 -13v-58c0 -6 -3 -12 -8 -15l-276 -123l276 -121c5 -3 8 -9 8 -15v-58c0 -14 -11 -19 -21 -13zM99 52c-10 0 -19 9 -19 19v42c0 10 9 19 19 19h387c10 0 18 -9 18 -19v-42c0 -10 -8 -19 -18 -19h-387z
" />
    <glyph glyph-name="greaterequal" unicode="&#x2265;" 
d="M116 198c-10 -6 -21 -1 -21 13v58c0 6 3 12 8 15l276 121l-276 123c-5 3 -8 9 -8 15v58c0 13 10 19 21 13l393 -190c7 -4 10 -9 10 -16v-8c0 -10 -3 -14 -10 -17zM113 52c-10 0 -18 9 -18 19v42c0 10 8 19 18 19h387c10 0 19 -9 19 -19v-42c0 -10 -9 -19 -19 -19h-387z
" />
    <glyph glyph-name="logicalnot" unicode="&#xac;" horiz-adv-x="583" 
d="M92 307c-10 0 -19 9 -19 19v42c0 10 9 19 19 19h386c11 0 19 -10 19 -19v-215c0 -10 -9 -18 -19 -18h-42c-10 0 -19 8 -19 18v154h-325z" />
    <glyph glyph-name="Delta" unicode="&#x2206;" horiz-adv-x="725" 
d="M44 41l301 660c3 5 9 9 15 9h6c6 0 12 -3 15 -9l300 -662c8 -18 7 -39 -19 -39h-596c-26 0 -34 15 -22 41zM178 95l369 1l-184 419h-2z" />
    <glyph glyph-name="uni0394" unicode="&#x394;" horiz-adv-x="725" 
d="M44 41l301 660c3 5 9 9 15 9h6c6 0 12 -3 15 -9l300 -662c8 -18 7 -39 -19 -39h-596c-26 0 -34 15 -22 41zM178 95l369 1l-184 419h-2z" />
    <glyph glyph-name="Omega" unicode="&#x2126;" horiz-adv-x="832" 
d="M67 16v64c0 9 7 16 16 16h102c-78 49 -129 154 -129 258c0 200 160 356 360 356s360 -156 360 -356c0 -104 -52 -209 -130 -258h102c9 0 16 -7 16 -16v-64c0 -8 -7 -16 -16 -16h-259c-9 0 -16 8 -16 16v41c0 20 7 24 20 30c110 43 181 150 181 262
c0 141 -117 261 -258 261c-142 0 -260 -120 -260 -261c0 -112 72 -219 182 -262c13 -6 20 -10 20 -30v-41c0 -8 -7 -16 -16 -16h-259c-9 0 -16 8 -16 16z" />
    <glyph glyph-name="uni03A9" unicode="&#x3a9;" horiz-adv-x="832" 
d="M67 16v64c0 9 7 16 16 16h102c-78 49 -129 154 -129 258c0 200 160 356 360 356s360 -156 360 -356c0 -104 -52 -209 -130 -258h102c9 0 16 -7 16 -16v-64c0 -8 -7 -16 -16 -16h-259c-9 0 -16 8 -16 16v41c0 20 7 24 20 30c110 43 181 150 181 262
c0 141 -117 261 -258 261c-142 0 -260 -120 -260 -261c0 -112 72 -219 182 -262c13 -6 20 -10 20 -30v-41c0 -8 -7 -16 -16 -16h-259c-9 0 -16 8 -16 16z" />
    <glyph glyph-name="mu" unicode="&#xb5;" horiz-adv-x="544" 
d="M84 -216v656c0 11 11 22 22 22h56c12 0 22 -11 22 -22v-240c0 -76 31 -116 90 -116c67 0 104 55 108 76v280c0 19 9 22 26 22h51c12 0 23 -11 23 -22v-418c0 -12 -11 -22 -23 -22h-24c-12 0 -17 8 -21 19l-12 33c-10 -10 -52 -63 -146 -63c-28 0 -52 4 -72 11v-216
c0 -12 -11 -22 -22 -22h-56c-12 0 -22 10 -22 22z" />
    <glyph glyph-name="uni03BC" unicode="&#x3bc;" horiz-adv-x="544" 
d="M84 -216v656c0 11 11 22 22 22h56c12 0 22 -11 22 -22v-240c0 -76 31 -116 90 -116c67 0 104 55 108 76v280c0 19 9 22 26 22h51c12 0 23 -11 23 -22v-418c0 -12 -11 -22 -23 -22h-24c-12 0 -17 8 -21 19l-12 33c-10 -10 -52 -63 -146 -63c-28 0 -52 4 -72 11v-216
c0 -12 -11 -22 -22 -22h-56c-12 0 -22 10 -22 22z" />
    <glyph glyph-name="pi" unicode="&#x3c0;" horiz-adv-x="664" 
d="M141 19v350h-101c-11 0 -19 10 -19 18v56c0 11 9 19 19 19h584c12 0 19 -8 19 -19v-56c0 -10 -7 -18 -19 -18h-104v-350c0 -11 -9 -19 -20 -19h-61c-11 0 -19 9 -19 19v350h-179v-350c0 -11 -9 -19 -20 -19h-62c-8 0 -18 9 -18 19z" />
    <glyph glyph-name="degree" unicode="&#xb0;" horiz-adv-x="348" 
d="M174 440c-75 0 -135 60 -135 135s60 135 135 135c74 0 135 -60 135 -135s-61 -135 -135 -135zM174 508c33 0 64 32 64 67c0 33 -31 64 -64 64c-35 0 -67 -31 -67 -64c0 -35 32 -67 67 -67z" />
    <glyph glyph-name="afii61289" unicode="&#x2113;" horiz-adv-x="478" 
d="M101 151c0 22 2 43 5 64c-16 -5 -37 -10 -48 -12c-10 -1 -14 2 -16 10l-4 29c-1 10 -1 18 14 20c22 4 46 9 67 16c5 30 10 59 16 90c42 218 103 342 205 342c70 0 112 -52 112 -134c0 -175 -138 -285 -284 -340c-6 -26 -10 -54 -10 -83c0 -53 20 -104 81 -104
c72 0 124 27 152 44c13 8 19 6 24 -3l11 -19c7 -12 9 -15 -2 -24c-9 -7 -83 -57 -185 -57s-138 78 -138 161zM180 296c117 51 214 144 214 280c0 47 -20 76 -54 76c-68 0 -113 -112 -148 -294z" />
    <glyph glyph-name="estimated" unicode="&#x212e;" horiz-adv-x="838" 
d="M181 162c52 -73 149 -116 246 -116c72 0 147 31 207 84c8 7 16 11 26 1l16 -18c8 -8 5 -15 -5 -25c-69 -65 -155 -98 -244 -98c-203 0 -363 157 -363 359c0 203 160 361 363 361c201 0 361 -159 363 -362c0 -20 -6 -27 -22 -27h-587v-159zM181 375h492v160
c-55 73 -145 118 -246 118c-103 0 -191 -42 -246 -116v-162z" />
    <glyph glyph-name="eng" unicode="&#x14b;" horiz-adv-x="549" 
d="M383 258c0 75 -31 119 -91 119c-73 0 -115 -51 -122 -67v-288c0 -15 -8 -22 -27 -22h-51c-12 0 -22 10 -22 22v418c0 11 10 22 22 22h24c10 0 17 -5 19 -14l14 -40c10 12 63 64 155 64c141 0 179 -98 179 -218v-296c0 -114 -53 -180 -116 -204c-14 -5 -28 -1 -35 12
l-21 39c-8 14 -2 30 12 37c30 15 60 42 60 104v312z" />
    <glyph glyph-name="Eng" unicode="&#x14a;" horiz-adv-x="763" 
d="M91 19v673c0 10 9 18 19 18h15c7 0 12 -2 17 -8l427 -494h1v473c0 10 8 19 19 19h64c10 0 19 -9 19 -19v-723c0 -114 -53 -180 -116 -204c-14 -5 -28 -1 -35 12l-21 39c-8 14 -2 30 12 37c30 15 60 42 60 104v112l-379 448h-1v-487c0 -10 -8 -19 -19 -19h-63
c-10 0 -19 9 -19 19z" />
    <glyph glyph-name="infinity" unicode="&#x221e;" horiz-adv-x="632" 
d="M205 157c-77 0 -139 62 -139 139c0 78 62 140 139 140c45 0 86 -27 110 -62c25 35 66 62 112 62c76 0 139 -62 139 -140c0 -77 -63 -139 -139 -139c-46 0 -87 26 -112 61c-24 -35 -65 -61 -110 -61zM356 296c0 -38 30 -68 68 -68s68 30 68 68s-30 68 -68 68
s-68 -30 -68 -68zM208 228c37 0 68 30 68 68s-31 68 -68 68c-38 0 -69 -30 -69 -68s31 -68 69 -68z" />
    <glyph glyph-name="partialdiff" unicode="&#x2202;" horiz-adv-x="582" 
d="M50 226c0 142 106 223 215 223c69 0 129 -33 137 -38c-34 127 -198 212 -245 228c-20 6 -24 17 -19 29l18 43c4 11 13 16 25 12c95 -36 341 -158 341 -445c0 -159 -78 -288 -243 -288c-124 0 -229 106 -229 236zM144 225c0 -78 60 -143 136 -143c103 0 144 99 144 182
c0 8 0 15 -1 22c-7 19 -60 79 -142 79c-76 0 -137 -63 -137 -140z" />
    <glyph glyph-name="integral" unicode="&#x222b;" horiz-adv-x="487" 
d="M195 -63v587c0 123 77 186 173 186c56 0 93 -25 111 -40c6 -6 8 -17 4 -24l-27 -44c-6 -9 -16 -9 -25 -3c-9 7 -40 23 -63 23c-41 0 -76 -29 -76 -98v-588c0 -123 -77 -185 -173 -185c-56 0 -93 24 -111 40c-6 6 -8 16 -4 23l27 44c6 9 16 10 25 3s40 -23 63 -23
c41 0 76 29 76 99z" />
    <glyph glyph-name="radical" unicode="&#x221a;" horiz-adv-x="658" 
d="M199 0l-171 380c-5 11 0 20 12 20h72c7 0 13 -5 14 -9l90 -209h4l227 508c2 5 7 10 15 10h168c10 0 16 -7 16 -16v-54c0 -8 -6 -16 -16 -16h-114l-281 -614c-2 -5 -7 -10 -14 -10h-8c-7 0 -12 5 -14 10z" />
    <glyph glyph-name="summation" unicode="&#x2211;" horiz-adv-x="556" 
d="M50 16v30l295 309l-295 303v26c0 8 7 16 16 16h408c9 0 16 -8 16 -16v-65c0 -9 -7 -16 -16 -16h-254l205 -195c6 -6 16 -16 16 -31v-41c0 -13 -10 -23 -16 -29l-205 -210h254c9 0 16 -8 16 -17v-64c0 -8 -7 -16 -16 -16h-408c-9 0 -16 8 -16 16z" />
    <glyph glyph-name="product" unicode="&#x220f;" horiz-adv-x="775" 
d="M101 16v668c0 8 8 16 16 16h541c9 0 16 -8 16 -16v-668c0 -8 -7 -16 -16 -16h-72c-10 0 -17 8 -17 16v587h-364v-587c0 -8 -6 -16 -16 -16h-72c-8 0 -16 8 -16 16z" />
    <glyph glyph-name="lozenge" unicode="&#x25ca;" horiz-adv-x="632" 
d="M67 309c-17 22 -17 35 -17 48c0 16 6 30 20 48l228 296c4 5 9 9 15 9h6c6 0 11 -4 15 -9l228 -295c16 -22 20 -33 20 -50c0 -23 -7 -32 -20 -51l-228 -305c-4 -5 -9 -9 -15 -9h-6c-6 0 -11 4 -15 9zM315 120h2l166 236l-166 225h-2l-167 -225z" />
    <glyph glyph-name="uniF8FF" unicode="&#xf8ff;" horiz-adv-x="599" 
d="M50 30v640c0 21 9 30 30 30h439c21 0 30 -9 30 -30v-640c0 -21 -9 -30 -30 -30h-439c-21 0 -30 9 -30 30zM262 314c0 -7 7 -12 14 -12h36c9 0 15 4 15 13v26c0 48 105 63 105 150c0 65 -54 111 -125 111c-87 0 -130 -61 -130 -61c-4 -6 -6 -13 0 -18l22 -22
c6 -4 11 -4 17 0c13 12 36 41 84 41c40 0 61 -25 61 -52c0 -63 -99 -72 -99 -147v-29zM245 156c0 -26 22 -48 48 -48c27 0 49 22 49 48s-22 48 -49 48c-26 0 -48 -22 -48 -48z" />
    <glyph glyph-name="zero.tf" 
d="M300 -10c-163 0 -245 135 -245 360c0 226 82 360 245 360c162 0 244 -134 244 -360c0 -225 -82 -360 -244 -360zM300 80c96 0 140 99 140 270c0 169 -44 268 -140 268c-97 0 -141 -99 -141 -268c0 -171 44 -270 141 -270z" />
    <glyph glyph-name="one.tf" 
d="M117 0c-11 0 -20 8 -20 19v44c0 11 9 19 20 19h164v489l-136 -63c-9 -4 -18 -1 -22 8l-15 30c-6 13 -3 21 7 27l193 117c12 7 23 10 37 10h18c11 0 19 -9 19 -19v-599h133c12 0 20 -8 20 -19v-44c0 -11 -8 -19 -20 -19h-398z" />
    <glyph glyph-name="two.tf" 
d="M227 90v-1h262c10 0 19 -10 19 -20v-49c0 -11 -9 -20 -19 -20h-399c-11 0 -20 9 -20 20v8c0 16 0 18 13 33c76 87 174 209 247 293c50 58 78 108 78 150c0 52 -36 112 -127 112c-56 0 -103 -39 -130 -69c-9 -8 -20 -8 -28 0l-35 35c-6 6 -8 19 -1 27c0 0 77 101 200 101
c147 0 225 -94 225 -202c0 -79 -43 -133 -99 -200c-54 -66 -125 -149 -186 -218z" />
    <glyph glyph-name="three.tf" 
d="M67 81c-6 8 -6 19 1 25l41 37c10 9 19 7 27 -2c28 -23 69 -64 145 -64c85 0 134 47 134 116c0 75 -57 116 -168 116h-57c-12 0 -20 7 -20 22v44c0 15 6 22 21 22h57c97 0 151 48 151 109c0 69 -52 112 -123 112c-61 0 -104 -35 -124 -58c-6 -8 -18 -10 -27 -2l-38 34
c-8 7 -7 20 0 27c0 0 83 91 195 91c127 0 221 -73 221 -189c0 -79 -65 -139 -111 -161v-3c48 -20 129 -60 129 -166c0 -121 -95 -201 -237 -201c-128 0 -194 65 -217 91z" />
    <glyph glyph-name="four.tf" 
d="M56 153c-11 0 -19 10 -19 20v42c0 14 4 25 12 36l319 440c12 16 18 19 38 19h25c11 0 20 -9 20 -20v-451h73c12 0 20 -8 20 -19v-48c0 -10 -8 -19 -20 -19h-72v-133c0 -11 -9 -20 -20 -20h-60c-11 0 -20 9 -20 20v133h-296zM150 242v-3h206v297h-3z" />
    <glyph glyph-name="five.tf" 
d="M90 75c-13 16 -14 23 -2 35c13 12 25 25 38 36c8 7 16 10 25 0c27 -28 72 -67 143 -67c84 0 140 59 140 146c0 72 -47 131 -143 131h-158c-20 0 -32 20 -32 36v289c0 10 9 19 20 19h318c11 0 20 -9 20 -19v-51c0 -10 -9 -19 -20 -19h-245v-163h104
c151 0 237 -88 237 -222c0 -137 -103 -236 -244 -236c-112 0 -175 54 -201 85z" />
    <glyph glyph-name="six.tf" 
d="M69 278c0 287 245 405 341 438c13 4 22 -1 26 -12l17 -43c5 -13 2 -23 -18 -29c-47 -16 -211 -94 -245 -221c8 5 68 38 137 38c109 0 215 -81 215 -223c0 -130 -105 -236 -230 -236c-164 0 -243 129 -243 288zM311 82c77 0 136 65 136 143c0 77 -60 140 -137 140
c-81 0 -130 -58 -141 -79c-8 -86 30 -204 142 -204z" />
    <glyph glyph-name="seven.tf" 
d="M406 608v2h-308c-13 0 -19 9 -19 19v52c0 10 7 19 19 19h421c11 0 20 -9 20 -19c0 -4 0 -7 -4 -16l-279 -637c-9 -21 -14 -28 -40 -28h-47c-14 0 -24 9 -24 20c0 9 1 14 6 25z" />
    <glyph glyph-name="eight.tf" 
d="M62 187c0 90 77 153 125 172v4c-45 22 -106 78 -106 158c0 114 94 189 218 189c127 0 220 -75 220 -189c0 -85 -61 -135 -106 -157v-5c48 -20 125 -83 125 -172c0 -112 -91 -197 -240 -197c-144 0 -236 85 -236 197zM300 408c79 11 115 54 115 109c0 63 -50 108 -118 108
c-62 0 -112 -45 -112 -108c0 -56 35 -97 115 -109zM169 185c0 -68 53 -112 130 -112s132 43 132 112c0 55 -48 112 -131 124c-83 -12 -131 -69 -131 -124z" />
    <glyph glyph-name="nine.tf" 
d="M146 41c-6 12 -1 24 18 30c48 15 213 91 247 217c-9 -6 -69 -38 -137 -38c-110 0 -216 82 -216 224c0 130 105 236 231 236c164 0 242 -130 242 -290c0 -287 -245 -403 -341 -438c-12 -4 -22 2 -26 13zM290 334c82 0 133 59 141 78c9 87 -30 205 -142 205
c-75 0 -136 -66 -136 -142c0 -78 61 -141 137 -141z" />
    <glyph glyph-name="zerosuperior" unicode="&#x2070;" horiz-adv-x="324" 
d="M162 495c-81 0 -126 59 -126 157c0 99 45 158 126 158s126 -59 126 -158c0 -98 -45 -157 -126 -157zM162 556c35 0 56 34 56 96s-21 97 -56 97s-55 -35 -55 -97s20 -96 55 -96z" />
    <glyph glyph-name="foursuperior" unicode="&#x2074;" horiz-adv-x="318" 
d="M186 504c-5 0 -10 4 -10 9v49h-143c-5 0 -9 4 -9 8v40l167 187c2 2 6 3 8 3h31c5 0 10 -4 10 -9v-178h40c5 0 9 -4 9 -8v-34c0 -5 -4 -9 -9 -9h-40v-49c0 -5 -5 -9 -10 -9h-44zM88 613h90v101z" />
    <glyph glyph-name="fivesuperior" unicode="&#x2075;" horiz-adv-x="288" 
d="M137 494c-52 0 -84 24 -97 38c-5 6 -6 9 -1 15l24 26c5 5 9 6 14 1c2 -2 27 -24 62 -24c31 0 55 22 55 48s-20 45 -57 45h-76c-10 0 -15 8 -15 16v132c0 5 4 9 9 9h158c5 0 9 -4 9 -9v-36c0 -4 -4 -8 -9 -8h-110v-50h42c72 0 114 -38 114 -98c0 -59 -50 -105 -122 -105z
" />
    <glyph glyph-name="sixsuperior" unicode="&#x2076;" horiz-adv-x="293" 
d="M151 494c-76 0 -117 58 -117 129c0 126 126 180 163 191c7 3 13 -1 15 -7l12 -28c2 -6 0 -12 -9 -15c-24 -7 -94 -37 -110 -84c3 2 28 15 59 15c49 0 99 -32 99 -97c0 -57 -51 -104 -112 -104zM151 552c28 0 50 21 50 47c0 27 -23 48 -51 48c-27 0 -49 -20 -55 -32
c1 -28 21 -63 56 -63z" />
    <glyph glyph-name="sevensuperior" unicode="&#x2077;" horiz-adv-x="266" 
d="M52 504c-6 0 -10 1 -10 7v7l124 227h-126c-5 0 -9 4 -9 9v37c0 5 4 9 9 9h200c5 0 9 -4 9 -9v-13l-137 -265c-4 -7 -8 -9 -14 -9h-46z" />
    <glyph glyph-name="eightsuperior" unicode="&#x2078;" horiz-adv-x="302" 
d="M149 494c-69 0 -114 37 -114 86c0 43 46 71 58 76v1c-20 9 -50 33 -50 70c0 50 47 83 107 83s108 -33 108 -83c0 -36 -31 -61 -51 -70v-1c23 -9 59 -34 59 -76c0 -49 -45 -86 -117 -86zM150 684c26 4 40 19 40 37c0 19 -18 35 -41 35c-21 0 -38 -16 -38 -35
s13 -33 39 -37zM150 548c25 0 46 14 46 36c0 19 -16 38 -46 42c-28 -4 -45 -23 -45 -42c0 -22 22 -36 45 -36z" />
    <glyph glyph-name="ninesuperior" unicode="&#x2079;" horiz-adv-x="294" 
d="M96 487c-7 -2 -12 1 -15 7l-11 29c-3 6 -1 12 9 14c23 7 93 38 110 84c-4 -2 -29 -15 -60 -15c-49 0 -98 33 -98 98c0 57 51 104 112 104c76 0 117 -58 117 -129c0 -126 -127 -180 -164 -192zM143 655c28 0 49 20 56 32c-1 28 -21 63 -57 63c-28 0 -50 -22 -50 -48
s23 -47 51 -47z" />
    <glyph glyph-name="zeroinferior" unicode="&#x2080;" horiz-adv-x="326" 
d="M37 -3c0 99 45 159 126 159s126 -60 126 -159c0 -98 -45 -157 -126 -157s-126 59 -126 157zM108 -3c0 -62 20 -96 55 -96s56 34 56 96s-21 98 -56 98s-55 -36 -55 -98z" />
    <glyph glyph-name="oneinferior" unicode="&#x2081;" horiz-adv-x="195" 
d="M26 59l-4 24c0 5 1 7 5 11l72 52h40c5 0 9 -4 9 -9v-278c0 -5 -4 -9 -9 -9h-49c-6 0 -10 4 -10 9v201l-45 -7c-5 -1 -9 1 -9 6z" />
    <glyph glyph-name="twoinferior" unicode="&#x2082;" horiz-adv-x="283" 
d="M61 74l-21 26c-4 6 -6 11 2 16c3 3 40 40 95 40c68 0 107 -39 107 -91c0 -31 -17 -59 -43 -88l-67 -73h100c6 0 9 -4 9 -10v-35c0 -5 -2 -9 -9 -9h-194c-6 0 -10 2 -10 9v15l118 130c19 20 29 37 29 53c0 20 -16 41 -49 41c-20 0 -41 -13 -53 -25c-5 -5 -10 -3 -14 1z
" />
    <glyph glyph-name="threeinferior" unicode="&#x2083;" horiz-adv-x="283" 
d="M74 13c0 8 5 12 13 12h30c35 0 53 16 53 37c0 23 -21 38 -46 38c-22 0 -38 -11 -48 -20c-4 -3 -8 -5 -14 1l-22 24c-4 4 -5 11 1 15c0 0 35 36 91 36c61 0 106 -32 106 -83c0 -35 -28 -61 -51 -70v-2c23 -9 60 -34 60 -75c0 -52 -49 -86 -115 -86c-60 0 -89 27 -99 37
c-5 4 -5 9 0 14l21 25c5 5 10 4 15 0c2 -1 27 -21 57 -21c28 0 51 15 51 38c0 22 -19 41 -60 41h-30c-8 0 -13 3 -13 11v28z" />
    <glyph glyph-name="fourinferior" unicode="&#x2084;" horiz-adv-x="318" 
d="M24 -44l167 187c2 2 6 3 8 3h31c5 0 10 -4 10 -9v-178h40c5 0 9 -4 9 -8v-34c0 -5 -4 -9 -9 -9h-40v-49c0 -5 -5 -9 -10 -9h-44c-5 0 -10 4 -10 9v49h-143c-5 0 -9 4 -9 8v40zM88 -41h90v101z" />
    <glyph glyph-name="fiveinferior" unicode="&#x2085;" horiz-adv-x="287" 
d="M46 5v132c0 5 4 9 9 9h158c5 0 9 -4 9 -9v-36c0 -4 -4 -8 -9 -8h-110v-50h42c72 0 114 -38 114 -98c0 -59 -50 -105 -122 -105c-52 0 -84 24 -97 38c-5 6 -6 9 -1 15l24 26c5 5 9 6 14 1c2 -2 27 -24 62 -24c31 0 55 22 55 48s-20 45 -57 45h-76c-10 0 -15 8 -15 16z" />
    <glyph glyph-name="sixinferior" unicode="&#x2086;" horiz-adv-x="294" 
d="M34 -31c0 126 126 180 163 191c7 3 13 -1 15 -7l12 -28c2 -6 0 -12 -9 -15c-24 -7 -94 -37 -110 -84c3 2 28 15 59 15c49 0 99 -32 99 -97c0 -57 -51 -104 -112 -104c-76 0 -117 58 -117 129zM95 -39c1 -28 21 -63 56 -63c28 0 50 21 50 47c0 27 -23 48 -51 48
c-27 0 -49 -20 -55 -32z" />
    <glyph glyph-name="seveninferior" unicode="&#x2087;" horiz-adv-x="267" 
d="M40 91c-5 0 -9 4 -9 9v37c0 5 4 9 9 9h200c5 0 9 -4 9 -9v-13l-137 -265c-4 -7 -8 -9 -14 -9h-46c-6 0 -10 1 -10 7v7l124 227h-126z" />
    <glyph glyph-name="eightinferior" unicode="&#x2088;" horiz-adv-x="303" 
d="M36 -74c0 43 46 71 58 76v1c-20 9 -50 33 -50 70c0 50 47 83 107 83s108 -33 108 -83c0 -36 -31 -61 -51 -70v-1c23 -9 59 -34 59 -76c0 -49 -45 -86 -117 -86c-69 0 -114 37 -114 86zM112 67c0 -19 13 -33 39 -37c26 4 40 19 40 37c0 19 -18 35 -41 35
c-21 0 -38 -16 -38 -35zM106 -70c0 -22 22 -36 45 -36c25 0 46 14 46 36c0 19 -16 38 -46 42c-28 -4 -45 -23 -45 -42z" />
    <glyph glyph-name="nineinferior" unicode="&#x2089;" horiz-adv-x="294" 
d="M31 50c0 57 51 104 112 104c76 0 117 -58 117 -129c0 -126 -127 -180 -164 -192c-7 -2 -12 1 -15 7l-11 29c-3 6 -1 12 9 14c23 7 93 38 110 84c-4 -2 -29 -15 -60 -15c-49 0 -98 33 -98 98zM92 48c0 -26 23 -47 51 -47s49 20 56 32c-1 28 -21 63 -57 63
c-28 0 -50 -22 -50 -48z" />
    <glyph glyph-name="zero.denom" horiz-adv-x="344" 
d="M46 147c0 99 45 159 126 159s126 -60 126 -159c0 -98 -45 -157 -126 -157s-126 59 -126 157zM172 51c35 0 56 34 56 96s-21 98 -56 98s-55 -36 -55 -98s20 -96 55 -96z" />
    <glyph glyph-name="one.denom" horiz-adv-x="222" 
d="M92 9v201l-45 -7c-5 -1 -9 1 -9 6l-4 24c0 5 1 7 5 11l72 52h40c5 0 9 -4 9 -9v-278c0 -5 -4 -9 -9 -9h-49c-6 0 -10 4 -10 9z" />
    <glyph glyph-name="two.denom" horiz-adv-x="309" 
d="M44 9v15l118 130c19 20 29 37 29 53c0 20 -16 41 -49 41c-20 0 -41 -13 -53 -25c-5 -5 -10 -3 -14 1l-21 26c-4 6 -6 11 2 16c3 3 40 40 95 40c68 0 107 -39 107 -91c0 -31 -17 -59 -43 -88l-67 -73h100c6 0 9 -4 9 -10v-35c0 -5 -2 -9 -9 -9h-194c-6 0 -10 2 -10 9z" />
    <glyph glyph-name="three.denom" horiz-adv-x="309" 
d="M48 27c-5 4 -5 9 0 14l21 25c5 5 10 4 15 0c2 -1 27 -21 57 -21c28 0 51 15 51 38c0 22 -19 41 -60 41h-30c-8 0 -13 3 -13 11v28c0 8 5 12 13 12h30c35 0 53 16 53 37c0 23 -21 38 -46 38c-22 0 -38 -11 -48 -20c-4 -3 -8 -5 -14 1l-22 24c-4 4 -5 11 1 15
c0 0 35 36 91 36c61 0 106 -32 106 -83c0 -35 -28 -61 -51 -70v-2c23 -9 60 -34 60 -75c0 -52 -49 -86 -115 -86c-60 0 -89 27 -99 37z" />
    <glyph glyph-name="four.denom" horiz-adv-x="332" 
d="M38 58c-5 0 -9 4 -9 8v40l167 187c2 2 6 3 8 3h31c5 0 10 -4 10 -9v-178h40c5 0 9 -4 9 -8v-34c0 -5 -4 -9 -9 -9h-40v-49c0 -5 -5 -9 -10 -9h-44c-5 0 -10 4 -10 9v49h-143zM93 109h90v101z" />
    <glyph glyph-name="five.denom" horiz-adv-x="318" 
d="M57 28c-5 6 -6 9 -1 15l24 26c5 5 9 6 14 1c2 -2 27 -24 62 -24c31 0 55 22 55 48s-20 45 -57 45h-76c-10 0 -15 8 -15 16v132c0 5 4 9 9 9h158c5 0 9 -4 9 -9v-36c0 -4 -4 -8 -9 -8h-110v-50h42c72 0 114 -38 114 -98c0 -59 -50 -105 -122 -105c-52 0 -84 24 -97 38z
" />
    <glyph glyph-name="six.denom" horiz-adv-x="331" 
d="M52 119c0 126 126 180 163 191c7 3 13 -1 15 -7l12 -28c2 -6 0 -12 -9 -15c-24 -7 -94 -37 -110 -84c3 2 28 15 59 15c49 0 99 -32 99 -97c0 -57 -51 -104 -112 -104c-76 0 -117 58 -117 129zM113 111c1 -28 21 -63 56 -63c28 0 50 21 50 47c0 27 -23 48 -51 48
c-27 0 -49 -20 -55 -32z" />
    <glyph glyph-name="seven.denom" horiz-adv-x="302" 
d="M61 7v7l124 227h-126c-5 0 -9 4 -9 9v37c0 5 4 9 9 9h200c5 0 9 -4 9 -9v-13l-137 -265c-4 -7 -8 -9 -14 -9h-46c-6 0 -10 1 -10 7z" />
    <glyph glyph-name="eight.denom" horiz-adv-x="326" 
d="M47 76c0 43 46 71 58 76v1c-20 9 -50 33 -50 70c0 50 47 83 107 83s108 -33 108 -83c0 -36 -31 -61 -51 -70v-1c23 -9 59 -34 59 -76c0 -49 -45 -86 -117 -86c-69 0 -114 37 -114 86zM162 180c26 4 40 19 40 37c0 19 -18 35 -41 35c-21 0 -38 -16 -38 -35s13 -33 39 -37z
M117 80c0 -22 22 -36 45 -36c25 0 46 14 46 36c0 19 -16 38 -46 42c-28 -4 -45 -23 -45 -42z" />
    <glyph glyph-name="nine.denom" horiz-adv-x="311" 
d="M79 19c-3 6 -1 12 9 14c23 7 93 38 110 84c-4 -2 -29 -15 -60 -15c-49 0 -98 33 -98 98c0 57 51 104 112 104c76 0 117 -58 117 -129c0 -126 -127 -180 -164 -192c-7 -2 -12 1 -15 7zM152 151c28 0 49 20 56 32c-1 28 -21 63 -57 63c-28 0 -50 -22 -50 -48s23 -47 51 -47
z" />
    <glyph glyph-name="zero.num" horiz-adv-x="324" 
d="M162 395c-81 0 -126 59 -126 157c0 99 45 158 126 158s126 -59 126 -158c0 -98 -45 -157 -126 -157zM162 456c35 0 56 34 56 96s-21 97 -56 97s-55 -35 -55 -97s20 -96 55 -96z" />
    <glyph glyph-name="one.num" horiz-adv-x="194" 
d="M90 404c-6 0 -10 4 -10 9v201l-45 -7c-5 -1 -9 1 -9 6l-4 24c0 5 1 7 5 11l72 52h40c5 0 9 -4 9 -9v-278c0 -5 -4 -9 -9 -9h-49z" />
    <glyph glyph-name="two.num" horiz-adv-x="281" 
d="M39 404c-6 0 -10 2 -10 9v15l118 130c19 20 29 37 29 53c0 20 -16 41 -49 41c-20 0 -41 -13 -53 -25c-5 -5 -10 -3 -14 1l-21 26c-4 6 -6 11 2 16c3 3 40 40 95 40c68 0 107 -39 107 -91c0 -31 -17 -59 -43 -88l-67 -73h100c6 0 9 -4 9 -10v-35c0 -5 -2 -9 -9 -9h-194z
" />
    <glyph glyph-name="three.num" horiz-adv-x="282" 
d="M132 394c-60 0 -89 27 -99 37c-5 4 -5 9 0 14l21 25c5 5 10 4 15 0c2 -1 27 -21 57 -21c28 0 51 15 51 38c0 22 -19 41 -60 41h-30c-8 0 -13 3 -13 11v28c0 8 5 12 13 12h30c35 0 53 16 53 37c0 23 -21 38 -46 38c-22 0 -38 -11 -48 -20c-4 -3 -8 -5 -14 1l-22 24
c-4 4 -5 11 1 15c0 0 35 36 91 36c61 0 106 -32 106 -83c0 -35 -28 -61 -51 -70v-2c23 -9 60 -34 60 -75c0 -52 -49 -86 -115 -86z" />
    <glyph glyph-name="four.num" horiz-adv-x="318" 
d="M186 404c-5 0 -10 4 -10 9v49h-143c-5 0 -9 4 -9 8v40l167 187c2 2 6 3 8 3h31c5 0 10 -4 10 -9v-178h40c5 0 9 -4 9 -8v-34c0 -5 -4 -9 -9 -9h-40v-49c0 -5 -5 -9 -10 -9h-44zM88 513h90v101z" />
    <glyph glyph-name="five.num" horiz-adv-x="288" 
d="M137 394c-52 0 -84 24 -97 38c-5 6 -6 9 -1 15l24 26c5 5 9 6 14 1c2 -2 27 -24 62 -24c31 0 55 22 55 48s-20 45 -57 45h-76c-10 0 -15 8 -15 16v132c0 5 4 9 9 9h158c5 0 9 -4 9 -9v-36c0 -4 -4 -8 -9 -8h-110v-50h42c72 0 114 -38 114 -98c0 -59 -50 -105 -122 -105z
" />
    <glyph glyph-name="six.num" horiz-adv-x="294" 
d="M151 394c-76 0 -117 58 -117 129c0 126 126 180 163 191c7 3 13 -1 15 -7l12 -28c2 -6 0 -12 -9 -15c-24 -7 -94 -37 -110 -84c3 2 28 15 59 15c49 0 99 -32 99 -97c0 -57 -51 -104 -112 -104zM151 452c28 0 50 21 50 47c0 27 -23 48 -51 48c-27 0 -49 -20 -55 -32
c1 -28 21 -63 56 -63z" />
    <glyph glyph-name="seven.num" horiz-adv-x="266" 
d="M52 404c-6 0 -10 1 -10 7v7l124 227h-126c-5 0 -9 4 -9 9v37c0 5 4 9 9 9h200c5 0 9 -4 9 -9v-13l-137 -265c-4 -7 -8 -9 -14 -9h-46z" />
    <glyph glyph-name="eight.num" horiz-adv-x="302" 
d="M149 394c-69 0 -114 37 -114 86c0 43 46 71 58 76v1c-20 9 -50 33 -50 70c0 50 47 83 107 83s108 -33 108 -83c0 -36 -31 -61 -51 -70v-1c23 -9 59 -34 59 -76c0 -49 -45 -86 -117 -86zM150 584c26 4 40 19 40 37c0 19 -18 35 -41 35c-21 0 -38 -16 -38 -35
s13 -33 39 -37zM150 448c25 0 46 14 46 36c0 19 -16 38 -46 42c-28 -4 -45 -23 -45 -42c0 -22 22 -36 45 -36z" />
    <glyph glyph-name="nine.num" horiz-adv-x="294" 
d="M96 387c-7 -2 -12 1 -15 7l-11 29c-3 6 -1 12 9 14c23 7 93 38 110 84c-4 -2 -29 -15 -60 -15c-49 0 -98 33 -98 98c0 57 51 104 112 104c76 0 117 -58 117 -129c0 -126 -127 -180 -164 -192zM143 555c28 0 49 20 56 32c-1 28 -21 63 -57 63c-28 0 -50 -22 -50 -48
s23 -47 51 -47z" />
    <glyph glyph-name="a.alt" horiz-adv-x="556" 
d="M486 440v-418c0 -12 -10 -22 -22 -22h-29c-11 0 -18 8 -21 20l-10 34s-55 -65 -147 -65c-122 0 -215 110 -215 242s93 241 220 241c86 0 133 -47 141 -55l12 29c3 9 11 16 22 16h27c12 0 22 -11 22 -22zM386 149v160c-4 14 -44 68 -111 68c-79 0 -133 -69 -133 -147
s55 -146 129 -146c71 0 110 52 115 65z" />
    <glyph glyph-name="agrave.alt" horiz-adv-x="556" 
d="M335 543l-168 72c-8 4 -11 14 -6 24l23 44c5 9 20 7 26 3l157 -91c6 -3 10 -11 6 -19l-14 -29c-4 -8 -10 -11 -24 -4zM486 440v-418c0 -12 -10 -22 -22 -22h-29c-11 0 -18 8 -21 20l-10 34s-55 -65 -147 -65c-122 0 -215 110 -215 242s93 241 220 241
c86 0 133 -47 141 -55l12 29c3 9 11 16 22 16h27c12 0 22 -11 22 -22zM386 149v160c-4 14 -44 68 -111 68c-79 0 -133 -69 -133 -147s55 -146 129 -146c71 0 110 52 115 65z" />
    <glyph glyph-name="aacute.alt" horiz-adv-x="556" 
d="M230 543c-14 -7 -20 -4 -24 4l-14 29c-4 8 0 16 6 19l157 91c6 4 21 6 26 -3l23 -44c5 -10 2 -20 -6 -24zM486 440v-418c0 -12 -10 -22 -22 -22h-29c-11 0 -18 8 -21 20l-10 34s-55 -65 -147 -65c-122 0 -215 110 -215 242s93 241 220 241c86 0 133 -47 141 -55l12 29
c3 9 11 16 22 16h27c12 0 22 -11 22 -22zM386 149v160c-4 14 -44 68 -111 68c-79 0 -133 -69 -133 -147s55 -146 129 -146c71 0 110 52 115 65z" />
    <glyph glyph-name="acircumflex.alt" horiz-adv-x="556" 
d="M157 542l-20 27c-5 7 0 15 6 19l125 98c6 5 17 5 24 0l125 -98c6 -4 11 -12 6 -19l-20 -27c-6 -8 -11 -11 -23 -3l-100 65l-100 -65c-12 -7 -17 -5 -23 3zM486 440v-418c0 -12 -10 -22 -22 -22h-29c-11 0 -18 8 -21 20l-10 34s-55 -65 -147 -65c-122 0 -215 110 -215 242
s93 241 220 241c86 0 133 -47 141 -55l12 29c3 9 11 16 22 16h27c12 0 22 -11 22 -22zM386 149v160c-4 14 -44 68 -111 68c-79 0 -133 -69 -133 -147s55 -146 129 -146c71 0 110 52 115 65z" />
    <glyph glyph-name="atilde.alt" horiz-adv-x="556" 
d="M163 568l-23 15c-10 6 -9 16 -6 23c9 18 39 84 98 84c58 0 77 -64 109 -64c23 0 31 25 41 40c6 10 13 16 25 9c8 -6 20 -11 26 -19c5 -8 2 -16 -3 -27c-10 -22 -39 -75 -94 -75c-51 0 -78 65 -107 65c-24 0 -37 -28 -43 -41c-5 -11 -10 -17 -23 -10zM486 440v-418
c0 -12 -10 -22 -22 -22h-29c-11 0 -18 8 -21 20l-10 34s-55 -65 -147 -65c-122 0 -215 110 -215 242s93 241 220 241c86 0 133 -47 141 -55l12 29c3 9 11 16 22 16h27c12 0 22 -11 22 -22zM386 149v160c-4 14 -44 68 -111 68c-79 0 -133 -69 -133 -147s55 -146 129 -146
c71 0 110 52 115 65z" />
    <glyph glyph-name="adieresis.alt" horiz-adv-x="556" 
d="M384 567c-31 0 -56 25 -56 56c0 32 25 57 56 57c32 0 57 -25 57 -57c0 -31 -25 -56 -57 -56zM187 567c-31 0 -56 25 -56 56c0 32 25 57 56 57c32 0 57 -25 57 -57c0 -31 -25 -56 -57 -56zM486 440v-418c0 -12 -10 -22 -22 -22h-29c-11 0 -18 8 -21 20l-10 34
s-55 -65 -147 -65c-122 0 -215 110 -215 242s93 241 220 241c86 0 133 -47 141 -55l12 29c3 9 11 16 22 16h27c12 0 22 -11 22 -22zM386 149v160c-4 14 -44 68 -111 68c-79 0 -133 -69 -133 -147s55 -146 129 -146c71 0 110 52 115 65z" />
    <glyph glyph-name="amacron.alt" horiz-adv-x="556" 
d="M160 576c-11 0 -19 8 -19 18v28c0 11 8 19 19 19h256c11 0 19 -8 19 -19v-28c0 -10 -8 -18 -19 -18h-256zM486 440v-418c0 -12 -10 -22 -22 -22h-29c-11 0 -18 8 -21 20l-10 34s-55 -65 -147 -65c-122 0 -215 110 -215 242s93 241 220 241c86 0 133 -47 141 -55l12 29
c3 9 11 16 22 16h27c12 0 22 -11 22 -22zM386 149v160c-4 14 -44 68 -111 68c-79 0 -133 -69 -133 -147s55 -146 129 -146c71 0 110 52 115 65z" />
    <glyph glyph-name="abreve.alt" horiz-adv-x="556" 
d="M287 529c-72 0 -128 50 -138 116c-2 12 4 21 16 21h29c10 0 16 -7 18 -15c11 -35 38 -59 75 -59c33 0 62 27 72 59c3 9 10 15 18 15h31c12 0 18 -9 16 -21c-11 -66 -67 -116 -137 -116zM486 440v-418c0 -12 -10 -22 -22 -22h-29c-11 0 -18 8 -21 20l-10 34
s-55 -65 -147 -65c-122 0 -215 110 -215 242s93 241 220 241c86 0 133 -47 141 -55l12 29c3 9 11 16 22 16h27c12 0 22 -11 22 -22zM386 149v160c-4 14 -44 68 -111 68c-79 0 -133 -69 -133 -147s55 -146 129 -146c71 0 110 52 115 65z" />
    <glyph glyph-name="aring.alt" horiz-adv-x="556" 
d="M281 508c-62 0 -111 49 -111 111s49 111 111 111c61 0 111 -49 111 -111s-50 -111 -111 -111zM281 563c29 0 53 27 53 56s-24 53 -53 53c-33 0 -56 -24 -56 -53s23 -56 56 -56zM486 440v-418c0 -12 -10 -22 -22 -22h-29c-11 0 -18 8 -21 20l-10 34s-55 -65 -147 -65
c-122 0 -215 110 -215 242s93 241 220 241c86 0 133 -47 141 -55l12 29c3 9 11 16 22 16h27c12 0 22 -11 22 -22zM386 149v160c-4 14 -44 68 -111 68c-79 0 -133 -69 -133 -147s55 -146 129 -146c71 0 110 52 115 65z" />
    <glyph glyph-name="aringacute.alt" horiz-adv-x="556" 
d="M281 503c-62 0 -111 34 -111 96s49 96 111 96c61 0 111 -34 111 -96s-50 -96 -111 -96zM281 558c29 0 53 12 53 41s-24 38 -53 38c-33 0 -56 -9 -56 -38s23 -41 56 -41zM188 712l-13 29c-4 8 -1 16 5 19l157 71c6 4 24 6 28 -3l21 -44c5 -10 3 -21 -6 -24l-168 -53
c-15 -5 -20 -3 -24 5zM486 440v-418c0 -12 -10 -22 -22 -22h-29c-11 0 -18 8 -21 20l-10 34s-55 -65 -147 -65c-122 0 -215 110 -215 242s93 241 220 241c86 0 133 -47 141 -55l12 29c3 9 11 16 22 16h27c12 0 22 -11 22 -22zM386 149v160c-4 14 -44 68 -111 68
c-79 0 -133 -69 -133 -147s55 -146 129 -146c71 0 110 52 115 65z" />
    <glyph glyph-name="aogonek.alt" horiz-adv-x="556" 
d="M486 440v-415c0 -14 -7 -20 -16 -24c-36 -17 -98 -72 -98 -126c0 -31 16 -46 43 -46c28 0 54 20 62 27c8 8 18 4 18 -6l1 -44c0 -11 -2 -21 -14 -29c-15 -9 -49 -23 -87 -23c-68 0 -103 45 -103 103c0 76 80 137 122 161l-10 36s-55 -65 -147 -65
c-122 0 -215 110 -215 242s93 241 220 241c86 0 133 -47 141 -55l12 29c3 9 11 16 22 16h27c12 0 22 -11 22 -22zM386 149v160c-4 14 -44 68 -111 68c-79 0 -133 -69 -133 -147s55 -146 129 -146c71 0 110 52 115 65z" />
    <glyph glyph-name="parenleft.case" horiz-adv-x="328" 
d="M294 -42c7 -2 13 -9 11 -18l-2 -46c-1 -9 -8 -13 -19 -13c-114 7 -242 160 -242 464s128 467 242 473c11 1 18 -4 19 -13l2 -46c2 -9 -4 -17 -11 -18c-112 -25 -155 -215 -155 -396c0 -182 43 -361 155 -387z" />
    <glyph glyph-name="parenright.case" horiz-adv-x="328" 
d="M34 -42c112 26 155 205 155 387c0 181 -43 371 -155 396c-7 1 -13 9 -11 18l2 46c1 9 8 14 19 13c114 -6 242 -169 242 -473s-128 -457 -242 -464c-11 0 -18 4 -19 13l-2 46c-2 9 4 16 11 18z" />
    <glyph glyph-name="hyphen.case" horiz-adv-x="376" 
d="M80 296c-11 0 -19 8 -19 18v43c0 11 8 19 19 19h216c11 0 19 -8 19 -19v-43c0 -10 -8 -18 -19 -18h-216z" />
    <glyph glyph-name="bracketleft.case" horiz-adv-x="340" 
d="M163 -37h134c10 0 19 -8 19 -18v-44c0 -10 -9 -19 -19 -19h-206c-10 0 -19 9 -19 19v900c0 10 9 19 19 19h206c10 0 19 -9 19 -19v-44c0 -11 -9 -19 -19 -19h-134v-775z" />
    <glyph glyph-name="bracketright.case" horiz-adv-x="341" 
d="M44 -37h133v775h-133c-10 0 -19 8 -19 19v44c0 10 9 19 19 19h206c10 0 19 -9 19 -19v-900c0 -10 -9 -19 -19 -19h-206c-10 0 -19 9 -19 19v44c0 10 9 18 19 18z" />
    <glyph glyph-name="braceleft.case" horiz-adv-x="398" 
d="M109 106v132c0 45 -45 69 -69 73c-8 1 -15 10 -15 18v40c0 8 7 14 14 16c16 2 70 29 70 73v134c0 201 143 235 246 237c11 1 20 -5 20 -17l2 -41c1 -8 -6 -17 -13 -18c-87 -15 -159 -56 -159 -161v-109c0 -93 -62 -125 -81 -133v-3c28 -12 81 -40 81 -131v-110
c0 -105 72 -143 159 -158c7 -1 14 -8 13 -18l-2 -41c0 -10 -10 -18 -20 -17c-103 2 -246 33 -246 234z" />
    <glyph glyph-name="bar.case" horiz-adv-x="189" 
d="M71 -150v961c0 11 9 19 19 19h10c10 0 18 -8 18 -19v-961c0 -10 -9 -18 -19 -18h-9c-10 0 -19 8 -19 18z" />
    <glyph glyph-name="braceright.case" horiz-adv-x="398" 
d="M193 108v110c0 91 53 119 81 131v3c-19 8 -81 40 -81 133v109c0 105 -72 144 -159 159c-7 1 -14 10 -13 18l2 41c0 12 9 18 20 17c103 -2 246 -34 246 -235v-134c0 -44 54 -71 70 -73c7 -2 14 -8 14 -16v-40c0 -8 -7 -17 -15 -18c-24 -4 -69 -28 -69 -73v-132
c0 -201 -143 -234 -246 -236c-10 -1 -20 7 -20 17l-2 41c-1 10 6 17 13 18c87 15 159 55 159 160z" />
    <glyph glyph-name="guilsinglleft.case" horiz-adv-x="277" 
d="M149 159l-104 155c-6 8 -4 18 0 24l109 148c3 5 10 12 18 12h35c17 0 23 -15 15 -31l-71 -139l68 -147c7 -16 2 -30 -15 -30h-40c-8 0 -12 4 -15 8z" />
    <glyph glyph-name="guilsinglright.case" horiz-adv-x="277" 
d="M72 151c-17 0 -22 14 -15 30l68 147l-71 139c-8 16 -2 31 15 31h35c8 0 15 -7 18 -12l109 -148c4 -6 6 -16 0 -24l-104 -155c-3 -4 -7 -8 -15 -8h-40z" />
    <glyph glyph-name="guillemotleft.case" horiz-adv-x="458" 
d="M226 314c-6 8 -4 18 0 24l109 148c3 5 10 12 18 12h35c17 0 23 -15 15 -31l-71 -139l68 -147c7 -16 2 -30 -15 -30h-40c-8 0 -12 4 -15 8zM149 159l-104 155c-6 8 -4 18 0 24l109 148c3 5 10 12 18 12h35c17 0 23 -15 15 -31l-71 -139l68 -147c7 -16 2 -30 -15 -30h-40
c-8 0 -12 4 -15 8z" />
    <glyph glyph-name="guillemotright.case" horiz-adv-x="458" 
d="M238 181l68 147l-71 139c-8 16 -2 31 15 31h35c8 0 15 -7 18 -12l109 -148c4 -6 6 -16 0 -24l-104 -155c-3 -4 -7 -8 -15 -8h-40c-17 0 -22 14 -15 30zM72 151c-17 0 -22 14 -15 30l68 147l-71 139c-8 16 -2 31 15 31h35c8 0 15 -7 18 -12l109 -148c4 -6 6 -16 0 -24
l-104 -155c-3 -4 -7 -8 -15 -8h-40z" />
    <glyph glyph-name="endash.case" horiz-adv-x="557" 
d="M84 246c-11 0 -19 8 -19 18v24c0 11 8 19 19 19h382c11 0 19 -8 19 -19v-24c0 -10 -8 -18 -19 -18h-382z" />
    <glyph glyph-name="emdash.case" horiz-adv-x="777" 
d="M84 246c-11 0 -19 8 -19 18v24c0 11 8 19 19 19h602c11 0 19 -8 19 -19v-24c0 -10 -8 -18 -19 -18h-602z" />
    <glyph glyph-name="bullet.case" horiz-adv-x="380" 
d="M188 137c-63 0 -117 53 -117 117c0 66 54 121 117 121c67 0 121 -55 121 -121c0 -64 -54 -117 -121 -117z" />
    <glyph glyph-name="periodcentered.case" horiz-adv-x="249" 
d="M124 215c-40 0 -73 34 -73 73c0 42 33 75 73 75c41 0 74 -33 74 -75c0 -39 -33 -73 -74 -73z" />
    <glyph glyph-name="brokenbar" unicode="&#xa6;" horiz-adv-x="197" 
d="M94 393c-10 0 -19 8 -19 18v331c0 11 9 19 19 19h10c10 0 18 -8 18 -19v-331c0 -10 -9 -18 -19 -18h-9zM75 112c0 11 9 19 19 19h10c10 0 18 -8 18 -19v-331c0 -10 -9 -18 -19 -18h-9c-10 0 -19 8 -19 18v331z" />
    <glyph glyph-name="q" unicode="q" horiz-adv-x="554" 
d="M42 231c0 132 91 241 218 241c86 0 138 -47 146 -55l12 29c3 9 6 16 17 16h27c12 0 22 -11 22 -22v-656c0 -12 -10 -22 -22 -22h-56c-12 0 -23 8 -23 22v238c-8 -5 -58 -33 -118 -33c-126 0 -223 107 -223 242zM142 231c0 -79 60 -147 135 -147c61 0 107 37 107 37v180
c-4 14 -44 76 -111 76c-79 0 -131 -68 -131 -146z" />
    <glyph glyph-name="gcircumflex.alt" horiz-adv-x="535" 
d="M31 73c0 89 80 121 80 121s-34 35 -34 94c0 109 80 184 199 184h202c12 0 22 -9 22 -22v-28c0 -8 -5 -19 -13 -20l-66 -18s52 -29 52 -104c0 -99 -76 -172 -196 -172c-59 0 -91 19 -101 19c-8 0 -47 -9 -47 -46c0 -26 21 -39 56 -39h156c101 0 179 -30 179 -129
c0 -102 -90 -162 -243 -162c-163 0 -229 52 -229 128c0 60 57 82 68 86v3c-24 7 -85 28 -85 105zM278 196c59 0 99 31 99 90c0 64 -40 91 -99 91c-60 0 -104 -27 -104 -91c0 -60 44 -90 104 -90zM145 -99c0 -48 59 -60 131 -60c71 0 144 7 144 63c0 25 -24 47 -79 47h-127
c-41 0 -69 -19 -69 -50zM167 542l-20 27c-5 7 0 15 6 19l125 98c6 5 17 5 24 0l125 -98c6 -4 11 -12 6 -19l-20 -27c-6 -8 -11 -11 -23 -3l-100 65l-100 -65c-12 -7 -17 -5 -23 3z" />
    <glyph glyph-name="gbreve.alt" horiz-adv-x="535" 
d="M31 73c0 89 80 121 80 121s-34 35 -34 94c0 109 80 184 199 184h202c12 0 22 -9 22 -22v-28c0 -8 -5 -19 -13 -20l-66 -18s52 -29 52 -104c0 -99 -76 -172 -196 -172c-59 0 -91 19 -101 19c-8 0 -47 -9 -47 -46c0 -26 21 -39 56 -39h156c101 0 179 -30 179 -129
c0 -102 -90 -162 -243 -162c-163 0 -229 52 -229 128c0 60 57 82 68 86v3c-24 7 -85 28 -85 105zM278 196c59 0 99 31 99 90c0 64 -40 91 -99 91c-60 0 -104 -27 -104 -91c0 -60 44 -90 104 -90zM145 -99c0 -48 59 -60 131 -60c71 0 144 7 144 63c0 25 -24 47 -79 47h-127
c-41 0 -69 -19 -69 -50zM297 529c-72 0 -128 50 -138 116c-2 12 4 21 16 21h29c10 0 16 -7 18 -15c11 -35 38 -59 75 -59c33 0 62 27 72 59c3 9 10 15 18 15h31c12 0 18 -9 16 -21c-11 -66 -67 -116 -137 -116z" />
    <glyph glyph-name="gdotaccent.alt" horiz-adv-x="535" 
d="M31 73c0 89 80 121 80 121s-34 35 -34 94c0 109 80 184 199 184h202c12 0 22 -9 22 -22v-28c0 -8 -5 -19 -13 -20l-66 -18s52 -29 52 -104c0 -99 -76 -172 -196 -172c-59 0 -91 19 -101 19c-8 0 -47 -9 -47 -46c0 -26 21 -39 56 -39h156c101 0 179 -30 179 -129
c0 -102 -90 -162 -243 -162c-163 0 -229 52 -229 128c0 60 57 82 68 86v3c-24 7 -85 28 -85 105zM278 196c59 0 99 31 99 90c0 64 -40 91 -99 91c-60 0 -104 -27 -104 -91c0 -60 44 -90 104 -90zM145 -99c0 -48 59 -60 131 -60c71 0 144 7 144 63c0 25 -24 47 -79 47h-127
c-41 0 -69 -19 -69 -50zM288 547c-37 0 -66 30 -66 67c0 38 29 68 66 68c38 0 68 -30 68 -68c0 -37 -30 -67 -68 -67z" />
    <glyph glyph-name="gcommaaccent.alt" horiz-adv-x="535" 
d="M31 73c0 89 80 121 80 121s-34 35 -34 94c0 109 80 184 199 184h202c12 0 22 -9 22 -22v-28c0 -8 -5 -19 -13 -20l-66 -18s52 -29 52 -104c0 -99 -76 -172 -196 -172c-59 0 -91 19 -101 19c-8 0 -47 -9 -47 -46c0 -26 21 -39 56 -39h156c101 0 179 -30 179 -129
c0 -102 -90 -162 -243 -162c-163 0 -229 52 -229 128c0 60 57 82 68 86v3c-24 7 -85 28 -85 105zM278 196c59 0 99 31 99 90c0 64 -40 91 -99 91c-60 0 -104 -27 -104 -91c0 -60 44 -90 104 -90zM145 -99c0 -48 59 -60 131 -60c71 0 144 7 144 63c0 25 -24 47 -79 47h-127
c-41 0 -69 -19 -69 -50zM368 599c0 -40 -31 -63 -74 -63c-49 0 -87 30 -87 97c0 60 26 103 53 132c6 6 12 6 20 1l24 -18c8 -6 7 -14 1 -20c-17 -15 -30 -42 -30 -67c0 -7 1 -13 3 -17c2 2 15 9 32 9c35 0 58 -24 58 -54z" />
    <glyph glyph-name="uni2117" unicode="&#x2117;" horiz-adv-x="837" 
d="M59 350c0 198 161 360 359 360s360 -162 360 -360s-162 -359 -360 -359s-359 161 -359 359zM128 350c0 -160 130 -290 290 -290c161 0 290 130 290 290c0 161 -129 290 -290 290c-160 0 -290 -129 -290 -290zM299 187v328c0 10 8 19 19 19h148c62 0 123 -42 123 -118
c0 -71 -44 -116 -128 -116h-87v-113c0 -10 -8 -19 -19 -19h-37c-11 0 -19 9 -19 19zM372 366h89c30 0 50 22 50 49c0 29 -20 49 -50 49h-89v-98z" />
    </font>
</defs>
</svg>
